Thread Rating:
  • 0 Vote(s) - 0 Average
  • 1
  • 2
  • 3
  • 4
  • 5

[-]
Tags
selma bluray avc 1080p hd ma 1 remux 2014 dts 5

 
  Selma (2014) Bluray Remux 1080p AVC DTS-HD MA 5.1
#1
Selma (2014) Bluray Remux 1080p AVC DTS-HD MA 5.1

[Image: tt1020072.jpg]

[Image: imdb.png]
https://www.imdb.com/title/tt1020072/

[Image: info.png]
Selma 2014 EN.mkv
Format                      : Matroska
Format version              : Version 4 / Version 2
File size                   : 27.8 GiB
Duration                    : 2 h 8 min
Overall bit rate mode       : Variable
Overall bit rate            : 31.1 Mb/s
Movie name                  : Selma
Encoded date                : UTC 2017-07-09 14:27:35
Writing application         : mkvmerge v13.0.0 ('The Juggler') 64bit
Writing library             : libebml v1.3.4 + libmatroska v1.4.5

Video
ID                          : 1
Format                      : AVC
Format/Info                 : Advanced Video Codec
Format profile              : [email protected]
Format settings, CABAC      : Yes
Format settings, ReFrames   : 2 frames
Format settings, GOP        : M=1, N=10
Codec ID                    : V_MPEG4/ISO/AVC
Duration                    : 2 h 8 min
Bit rate mode               : Variable
Bit rate                    : 27.6 Mb/s
Width                       : 1 920 pixels
Height                      : 1 080 pixels
Display aspect ratio        : 16:9
Frame rate mode             : Constant
Frame rate                  : 23.976 (24000/1001) FPS
Color space                 : YUV
Chroma subsampling          : 4:2:0
Bit depth                   : 8 bits
Scan type                   : Progressive
Bits/(Pixel*Frame)          : 0.556
Stream size                 : 24.8 GiB (89%)
Title                       : Selma
Language                    : English
Default                     : Yes
Forced                      : No

Audio
ID                          : 2
Format                      : DTS
Format/Info                 : Digital Theater Systems
Format profile              : MA / Core
Mode                        : 16
Format settings, Endianness : Big
Codec ID                    : A_DTS
Duration                    : 2 h 8 min
Bit rate mode               : Variable / Constant
Bit rate                    : 3 397 kb/s / 1 509 kb/s
Channel(s)                  : 6 channels
Channel positions           : Front: L C R, Side: L R, LFE
Sampling rate               : 48.0 kHz
Frame rate                  : 93.750 FPS (512 spf)
Bit depth                   : 24 bits
Compression mode            : Lossless / Lossy
Stream size                 : 3.04 GiB (11%)
Title                       : English
Language                    : English
Default                     : Yes
Forced                      : No

Text #1
ID                          : 3
Format                      : PGS
Muxing mode                 : zlib
Codec ID                    : S_HDMV/PGS
Codec ID/Info               : Picture based subtitle format used on BDs/HD-DVDs
Duration                    : 1 h 58 min
Bit rate                    : 41.8 kb/s
Count of elements           : 3222
Stream size                 : 35.6 MiB (0%)
Title                       : English
Language                    : English
Default                     : No
Forced                      : No

Text #2
ID                          : 4
Format                      : PGS
Muxing mode                 : zlib
Codec ID                    : S_HDMV/PGS
Codec ID/Info               : Picture based subtitle format used on BDs/HD-DVDs
Duration                    : 1 h 58 min
Bit rate                    : 34.3 kb/s
Count of elements           : 2692
Stream size                 : 29.1 MiB (0%)
Title                       : Turkish
Language                    : Turkish
Default                     : Yes
Forced                      : No

[Image: vlcsnap-error451-jpg-e9196a6fbfd9ca2f376...409b03.jpg]

[Image: vlcsnap-error768-jpg-020f152071d8293a5c1...2faf6b.jpg]

[Image: tdown.png]

For Only Vip Members

Selma (2014) Bluray Remux 1080p AVC DTS-HD MA 5.1 VIP
Reply


Forum Jump:


Users browsing this thread: 1 Guest(s)

Powered By MyBB
RSS RSS Syndication
Updated By iAndrew | 2022