Thread Rating:
  • 0 Vote(s) - 0 Average
  • 1
  • 2
  • 3
  • 4
  • 5

[-]
Tags
to zombie bluray 2015 avc 1080p the guide hd ma apocalypse 1 remux dts 5 scouts

  Scouts Guide to the Zombie Apocalypse (2015) Bluray Remux 1080p AVC DTS-HD MA 5.1
#1
Scouts Guide to the Zombie Apocalypse (2015) Bluray Remux 1080p AVC DTS-HD MA 5.1

[Image: tt1727776.jpg]

[Image: imdb.png]
https://www.imdb.com/title/tt1727776/

[Image: info.png]
Scouts Guide to the Zombie Apocalypse 2015 EN.mkv
Format                      : Matroska
Format version              : Version 4 / Version 2
File size                   : 18.0 GiB
Duration                    : 1 h 32 min
Overall bit rate mode       : Variable
Overall bit rate            : 27.7 Mb/s
Movie name                  : Scouts Guide to the Zombie Apocalypse
Encoded date                : UTC 2016-01-25 14:01:41
Writing application         : mkvmerge v8.3.0 ('Over the Horizon') 64bit
Writing library             : libebml v1.3.1 + libmatroska v1.4.2

Video
ID                          : 1
Format                      : AVC
Format/Info                 : Advanced Video Codec
Format profile              : [email protected]
Format settings             : CABAC / 4 Ref Frames
Format settings, CABAC      : Yes
Format settings, ReFrames   : 4 frames
Codec ID                    : V_MPEG4/ISO/AVC
Duration                    : 1 h 32 min
Bit rate mode               : Variable
Bit rate                    : 23.9 Mb/s
Maximum bit rate            : 32.0 Mb/s
Width                       : 1 920 pixels
Height                      : 1 080 pixels
Display aspect ratio        : 16:9
Frame rate mode             : Constant
Frame rate                  : 23.976 (24000/1001) FPS
Color space                 : YUV
Chroma subsampling          : 4:2:0
Bit depth                   : 8 bits
Scan type                   : Progressive
Bits/(Pixel*Frame)          : 0.481
Stream size                 : 15.5 GiB (86%)
Title                       : Scouts Guide to the Zombie Apocalypse
Language                    : English
Default                     : Yes
Forced                      : No

Audio
ID                          : 2
Format                      : DTS
Format/Info                 : Digital Theater Systems
Format profile              : MA / Core
Codec ID                    : A_DTS
Duration                    : 1 h 32 min
Bit rate mode               : Variable / Constant
Bit rate                    : 3 840 kb/s / 1 509 kb/s
Channel(s)                  : 6 channels
Channel positions           : Front: L C R, Side: L R, LFE
Sampling rate               : 48.0 kHz
Frame rate                  : 93.750 FPS (512 SPF)
Bit depth                   : 24 bits
Compression mode            : Lossless / Lossy
Stream size                 : 2.47 GiB (14%)
Title                       : English
Language                    : English
Default                     : Yes
Forced                      : No

Text #1
ID                          : 3
Format                      : PGS
Muxing mode                 : zlib
Codec ID                    : S_HDMV/PGS
Codec ID/Info               : Picture based subtitle format used on BDs/HD-DVDs
Duration                    : 1 h 26 min
Bit rate                    : 10.5 kb/s
Count of elements           : 2324
Stream size                 : 6.46 MiB (0%)
Title                       : English
Language                    : English
Default                     : No
Forced                      : No

Text #2
ID                          : 4
Format                      : PGS
Muxing mode                 : zlib
Codec ID                    : S_HDMV/PGS
Codec ID/Info               : Picture based subtitle format used on BDs/HD-DVDs
Duration                    : 1 h 32 min
Bit rate                    : 8 989 b/s
Count of elements           : 2352
Stream size                 : 5.93 MiB (0%)
Title                       : Turkish
Language                    : Turkish
Default                     : Yes
Forced                      : No

[Image: 34003858398_5ef693be5e_b.jpg]

[Image: 46964877675_8bd482bc63_b.jpg]

[Image: tdown.png]

For Only Vip Members

Scouts Guide to the Zombie Apocalypse (2015) Bluray Remux 1080p AVC DTS-HD MA 5.1 VIP
Reply


Possibly Related Threads…
Thread Author Replies Views Last Post
  Apocalypse Now (1979) Bluray Remux 1080p TR EN AVC DTS-HD MA 5.1 admin 0 416 07-17-2019, 01:57 PM
Last Post: admin
  Resident Evil Apocalypse (2004) Bluray Remux 1080p TR-EN MPEG DD 5.1 admin 0 519 05-07-2019, 10:14 PM
Last Post: admin

Forum Jump:


Users browsing this thread: 1 Guest(s)

Powered By MyBB
Theme By Audentio Design
Updated By iAndrew | 2018