Thread Rating:
  • 0 Vote(s) - 0 Average
  • 1
  • 2
  • 3
  • 4
  • 5

[-]
Tags
dd bluray safety 1923 avc 1080p last 2 remux

  Safety Last (1923) Bluray Remux 1080p AVC DD 2.0
#1
Safety Last (1923) Bluray Remux 1080p AVC DD 2.0

[Image: tt0014429.jpg]

[Image: imdb.png]
https://www.imdb.com/title/tt0014429/

[Image: info.png]
Safety Last! 1923 EN.mkv
Format                      : Matroska
Format version              : Version 4 / Version 2
File size                   : 15.0 GiB
Duration                    : 1 h 13 min
Overall bit rate mode       : Variable
Overall bit rate            : 29.2 Mb/s
Movie name                  : Safety Last!
Encoded date                : UTC 2016-10-20 09:51:43
Writing application         : mkvmerge v8.3.0 ('Over the Horizon') 64bit
Writing library             : libebml v1.3.1 + libmatroska v1.4.2

Video
ID                          : 1
Format                      : AVC
Format/Info                 : Advanced Video Codec
Format profile              : [email protected]
Format settings             : CABAC / 4 Ref Frames
Format settings, CABAC      : Yes
Format settings, ReFrames   : 4 frames
Codec ID                    : V_MPEG4/ISO/AVC
Duration                    : 1 h 13 min
Bit rate mode               : Variable
Bit rate                    : 28.7 Mb/s
Maximum bit rate            : 37.0 Mb/s
Width                       : 1 920 pixels
Height                      : 1 080 pixels
Display aspect ratio        : 16:9
Frame rate mode             : Constant
Frame rate                  : 29.970 (30000/1001) FPS
Color space                 : YUV
Chroma subsampling          : 4:2:0
Bit depth                   : 8 bits
Scan type                   : MBAFF
Scan type, store method     : Interleaved fields
Scan order                  : Top Field First
Bits/(Pixel*Frame)          : 0.462
Stream size                 : 14.8 GiB (98%)
Title                       : Safety Last!
Language                    : English
Default                     : Yes
Forced                      : No

Audio
ID                          : 2
Format                      : AC-3
Format/Info                 : Audio Coding 3
Codec ID                    : A_AC3
Duration                    : 1 h 13 min
Bit rate mode               : Constant
Bit rate                    : 448 kb/s
Channel(s)                  : 2 channels
Channel positions           : Front: L R
Sampling rate               : 48.0 kHz
Frame rate                  : 31.250 FPS (1536 SPF)
Bit depth                   : 16 bits
Compression mode            : Lossy
Stream size                 : 237 MiB (2%)
Title                       : English
Language                    : English
Service kind                : Complete Main
Default                     : Yes
Forced                      : No

[Image: 40914534043_180f3e996a_b.jpg]

[Image: 46964836415_1bab6025f7_b.jpg]

[Image: tdown.png]

For Only Vip Members

Safety Last (1923) Bluray Remux 1080p AVC DD 2.0 VIP
Reply


Forum Jump:


Users browsing this thread: 1 Guest(s)

Powered By MyBB
Theme By Audentio Design
Updated By iAndrew | 2018