Thread Rating:
  • 0 Vote(s) - 0 Average
  • 1
  • 2
  • 3
  • 4
  • 5

[-]
Tags
dd sabata bluray 1969 avc 1080p 2 remux

 
  Sabata (1969) Bluray Remux 1080p AVC DD 2.0
#1
Sabata (1969) Bluray Remux 1080p AVC DD 2.0

[Image: tt0064916.jpg]

[Image: imdb.png]
https://www.imdb.com/title/tt0064916/

[Image: info.png]
Sabata aka Ehi amico ce Sabata Hai chiuso' 1969 EN.mkv
Format                      : Matroska
Format version              : Version 4 / Version 2
File size                   : 17.0 GiB
Duration                    : 1 h 46 min
Overall bit rate mode       : Variable
Overall bit rate            : 22.9 Mb/s
Movie name                  : Sabata aka Ehi amico... c'è Sabata. Hai chiuso!
Encoded date                : UTC 2017-08-21 18:24:26
Writing application         : mkvmerge v15.0.0 ('Duel with the Devil') 64-bit
Writing library             : libebml v1.3.5 + libmatroska v1.4.5

Video
ID                          : 1
Format                      : AVC
Format/Info                 : Advanced Video Codec
Format profile              : [email protected]
Format settings, CABAC      : Yes
Format settings, ReFrames   : 3 frames
Codec ID                    : V_MPEG4/ISO/AVC
Duration                    : 1 h 46 min
Bit rate mode               : Variable
Bit rate                    : 22.7 Mb/s
Maximum bit rate            : 27.4 Mb/s
Width                       : 1 920 pixels
Height                      : 1 080 pixels
Display aspect ratio        : 16:9
Frame rate mode             : Constant
Frame rate                  : 23.976 (24000/1001) FPS
Standard                    : NTSC
Color space                 : YUV
Chroma subsampling          : 4:2:0
Bit depth                   : 8 bits
Scan type                   : Progressive
Bits/(Pixel*Frame)          : 0.456
Stream size                 : 16.8 GiB (99%)
Title                       : Sabata aka Ehi amico... c'è Sabata. Hai chiuso!
Language                    : English
Default                     : Yes
Forced                      : No
Color range                 : Limited

Audio
ID                          : 2
Format                      : AC-3
Format/Info                 : Audio Coding 3
Format settings, Endianness : Big
Codec ID                    : A_AC3
Duration                    : 1 h 46 min
Bit rate mode               : Constant
Bit rate                    : 192 kb/s
Channel(s)                  : 2 channels
Channel positions           : Front: L R
Sampling rate               : 48.0 kHz
Frame rate                  : 31.250 FPS (1536 spf)
Bit depth                   : 16 bits
Compression mode            : Lossy
Stream size                 : 146 MiB (1%)
Title                       : English
Language                    : English
Service kind                : Complete Main
Default                     : Yes
Forced                      : No

Text #1
ID                          : 3
Format                      : PGS
Muxing mode                 : zlib
Codec ID                    : S_HDMV/PGS
Codec ID/Info               : Picture based subtitle format used on BDs/HD-DVDs
Duration                    : 1 h 45 min
Bit rate                    : 11.9 kb/s
Count of elements           : 1123
Stream size                 : 8.94 MiB (0%)
Title                       : English
Language                    : English
Default                     : No
Forced                      : No

Text #2
ID                          : 4
Format                      : PGS
Muxing mode                 : zlib
Codec ID                    : S_HDMV/PGS
Codec ID/Info               : Picture based subtitle format used on BDs/HD-DVDs
Duration                    : 1 h 44 min
Bit rate                    : 13.6 kb/s
Count of elements           : 1292
Stream size                 : 10.1 MiB (0%)
Title                       : Turkish
Language                    : Turkish
Default                     : Yes
Forced                      : No

[Image: 33956962568_7e33bee90a_b.jpg]

[Image: 47044661424_5b28261b95_b.jpg]

[Image: tdown.png]

For Only Vip Members

Sabata (1969) Bluray Remux 1080p AVC DD 2.0 VIP
Reply


Possibly Related Threads…
Thread Author Replies Views Last Post
  The Learning Tree 1969 1080p Blu-ray Remux AVC LPCM 1 0-HDT KAiJu 0 36 05-03-2022, 07:46 AM
Last Post: KAiJu
  Pit Stop 1969 1080p Blu-ray Remux AVC DTS-HD MA 1.0 - KRaLiMaRKo KAiJu 0 29 04-24-2022, 09:54 AM
Last Post: KAiJu
  Castle Keep 1969 1080p Remux AVC DTS-HD MA 4 0-playBD KAiJu 0 43 04-11-2022, 08:42 AM
Last Post: KAiJu
  More dead than alive 1969 1080p Blu-ray Remux AVC DD 2 0-HDT KAiJu 0 74 03-01-2022, 06:36 AM
Last Post: KAiJu
  Mackennas Gold 1969 1080p Blu-ray Remux AVC DD 2 0-HDT KAiJu 0 58 01-31-2022, 07:37 AM
Last Post: KAiJu

Forum Jump:


Users browsing this thread: 1 Guest(s)

Powered By MyBB
RSS RSS Syndication
Updated By iAndrew | 2022