Thread Rating:
  • 0 Vote(s) - 0 Average
  • 1
  • 2
  • 3
  • 4
  • 5

[-]
Tags
rosemarys bluray baby x264 1080p prodji 1 2 2014 dts part

 
  Rosemarys Baby (2014) Part 1-2 BluRay 1080p DTS x264-PRoDJi
#1
Rosemarys Baby (2014) Part 1-2 BluRay 1080p DTS x264-PRoDJi

[Image: rosemary.jpg]

[Image: imdb.png]
https://www.imdb.com/title/tt0063522/

[Image: info.png]
Format : Matroska
Format version : Version 4
File size : 7.28 GiB
Duration : 1 h 24 min
Overall bit rate : 12.3 Mb/s
Encoded date : UTC 2017-06-06 21:57:21
Writing application : mkvmerge v12.0.0 ('Trust / Lust') 64bit
Writing library : libebml v1.3.4 + libmatroska v1.4.5

Video
ID : 1
Format : AVC
Format/Info : Advanced Video Codec
Format profile : [email protected]
Format settings : CABAC / 3 Ref Frames
Format settings, CABAC : Yes
Format settings, RefFrames : 3 frames
Codec ID : V_MPEG4/ISO/AVC
Duration : 1 h 24 min
Bit rate : 10.8 Mb/s
Width : 1 920 pixels
Height : 1 080 pixels
Display aspect ratio : 16:9
Frame rate mode : Constant
Frame rate : 23.976 (24000/1001) FPS
Color space : YUV
Chroma subsampling : 4:2:0
Bit depth : 8 bits
Scan type : Progressive
Bits/(Pixel*Frame) : 0.217
Stream size : 6.39 GiB (88%)
Writing library : x264 core 148 r2744 b97ae06
Encoding settings : cabac=1 / ref=4 / deblock=1:-1:-1 / analyse=0x3:0x113 / me=umh / subme=7 / psy=1 / psy_rd=1.00:0.00 / mixed_ref=1 / me_range=24 / chroma_me=1 / trellis=2 / 8x8dct=1 / cqm=2 / deadzone=21,11 / fast_pskip=1 / chroma_qp_offset=-5 / threads=12 / lookahead_threads=3 / sliced_threads=0 / nr=0 / decimate=0 / interlaced=0 / bluray_compat=0 / constrained_intra=0 / bframes=5 / b_pyramid=1 / b_adapt=2 / b_bias=2 / direct=3 / weightb=1 / open_gop=0 / weightp=2 / keyint=230 / keyint_min=22 / scenecut=40 / intra_refresh=0 / rc_lookahead=45 / rc=2pass / mbtree=1 / bitrate=10812 / ratetol=1.0 / qcomp=0.60 / qpmin=10 / qpmax=41 / qpstep=4 / cplxblur=20.0 / qblur=0.5 / ip_ratio=1.30 / aq=1:1.00
Language : English
Default : Yes
Forced : No

Audio
ID : 2
Format : DTS
Format/Info : Digital Theater Systems
Codec ID : A_DTS
Duration : 1 h 24 min
Bit rate mode : Constant
Bit rate : 1 509 kb/s
Channel(s) : 6 channels
Channel layout : C L R Ls Rs LFE
Sampling rate : 48.0 kHz
Frame rate : 93.750 FPS (512 SPF)
Bit depth : 24 bits
Compression mode : Lossy
Stream size : 913 MiB (12%)
Language : English
Default : Yes
Forced : No

Text #1
ID : 3
Format : UTF-8
Codec ID : S_TEXT/UTF8
Codec ID/Info : UTF-8 Plain Text
Duration : 1 h 23 min
Bit rate : 62 b/s
Count of elements : 1028
Stream size : 38.5 KiB (0%)
Title : Turkish
Language : Turkish
Default : Yes
Forced : No

Text #2
ID : 4
Format : UTF-8
Codec ID : S_TEXT/UTF8
Codec ID/Info : UTF-8 Plain Text
Duration : 1 h 23 min
Bit rate : 58 b/s
Count of elements : 1275
Stream size : 36.0 KiB (0%)
Language : English
Default : No
Forced : No

[Image: 1.jpg]

[Image: 2.jpg]

[Image: 3.jpg]

[Image: tdown.png]

For Only Vip Members
Reply


Possibly Related Threads…
Thread Author Replies Views Last Post
  Eliza Graves Stonehearst Asylum (2014) Bluray 1080p TrueHD 5.1 x264-HUS AbrA 0 44 07-30-2021, 10:28 AM
Last Post: AbrA
  The Scorpion King (2002-2008-2012) 1-2-3 Bluray 1080p EN-TR x264-PRoDJi AbrA 0 47 07-13-2021, 08:57 PM
Last Post: AbrA
  The Water Diviner (2014) Bluray 1080p EN-TR DD5.1 x264-TURG AbrA 0 90 06-30-2021, 08:52 PM
Last Post: AbrA
  Ocean's Eleven (1960-2018) Collection BluRay 1080p DTS x264-PRoDJi KAiJu 0 78 06-20-2021, 08:40 AM
Last Post: KAiJu
  John Wick (2014-2019) Trilogy BluRay 1080p DTS x264-PRoDJi KAiJu 0 93 06-17-2021, 02:54 PM
Last Post: KAiJu

Forum Jump:


Users browsing this thread: 1 Guest(s)

Powered By MyBB
RSS RSS Syndication
Updated By iAndrew | 2021