Thread Rating:
  • 0 Vote(s) - 0 Average
  • 1
  • 2
  • 3
  • 4
  • 5

[-]
Tags
stone 1984 bluray avc 1080p the hd ma 1 remux dts romancing 5

  Romancing the Stone (1984) Bluray Remux 1080p AVC DTS-HD MA 5.1
#1
Romancing the Stone (1984) Bluray Remux 1080p AVC DTS-HD MA 5.1

[Image: tt0088011.jpg]

[Image: imdb.png]
https://www.imdb.com/title/tt0088011/

[Image: info.png]
Romancing the Stone 1984 EN.mkv
Format                      : Matroska
Format version              : Version 4 / Version 2
File size                   : 28.1 GiB
Duration                    : 1 h 45 min
Overall bit rate mode       : Variable
Overall bit rate            : 38.1 Mb/s
Movie name                  : Romancing the Stone
Encoded date                : UTC 2015-01-05 20:47:57
Writing application         : mkvmerge v7.4.0 ('Circles') 64bit built on Dec 12 2014 12:19:56
Writing library             : libebml v1.3.0 + libmatroska v1.4.1

Video
ID                          : 1
Format                      : AVC
Format/Info                 : Advanced Video Codec
Format profile              : [email protected]
Format settings, CABAC      : Yes
Format settings, ReFrames   : 4 frames
Codec ID                    : V_MPEG4/ISO/AVC
Duration                    : 1 h 45 min
Bit rate mode               : Variable
Bit rate                    : 34.6 Mb/s
Maximum bit rate            : 36.0 Mb/s
Width                       : 1 920 pixels
Height                      : 1 080 pixels
Display aspect ratio        : 16:9
Frame rate mode             : Constant
Frame rate                  : 23.976 (24000/1001) FPS
Color space                 : YUV
Chroma subsampling          : 4:2:0
Bit depth                   : 8 bits
Scan type                   : Progressive
Bits/(Pixel*Frame)          : 0.696
Stream size                 : 25.6 GiB (91%)
Title                       : Romancing the Stone
Language                    : English
Default                     : Yes
Forced                      : No
Color range                 : Limited
Color primaries             : BT.709
Transfer characteristics    : BT.709
Matrix coefficients         : BT.709

Audio
ID                          : 2
Format                      : DTS
Format/Info                 : Digital Theater Systems
Format profile              : MA / Core
Mode                        : 16
Format settings, Endianness : Big
Codec ID                    : A_DTS
Duration                    : 1 h 45 min
Bit rate mode               : Variable / Constant
Bit rate                    : 3 431 kb/s / 1 509 kb/s
Channel(s)                  : 6 channels
Channel positions           : Front: L C R, Side: L R, LFE
Sampling rate               : 48.0 kHz
Frame rate                  : 93.750 FPS (512 spf)
Bit depth                   : 24 bits
Compression mode            : Lossless / Lossy
Stream size                 : 2.53 GiB (9%)
Title                       : English
Language                    : English
Default                     : Yes
Forced                      : No

Text #1
ID                          : 3
Format                      : PGS
Muxing mode                 : zlib
Codec ID                    : S_HDMV/PGS
Codec ID/Info               : Picture based subtitle format used on BDs/HD-DVDs
Duration                    : 1 h 41 min
Bit rate                    : 17.4 kb/s
Count of elements           : 2172
Stream size                 : 12.7 MiB (0%)
Title                       : English
Language                    : English
Default                     : No
Forced                      : No

Text #2
ID                          : 4
Format                      : PGS
Muxing mode                 : zlib
Codec ID                    : S_HDMV/PGS
Codec ID/Info               : Picture based subtitle format used on BDs/HD-DVDs
Duration                    : 1 h 41 min
Bit rate                    : 9 271 b/s
Count of elements           : 1886
Stream size                 : 6.74 MiB (0%)
Title                       : Turkish
Language                    : Turkish
Default                     : Yes
Forced                      : No

[Image: vlcsnap-error332-jpg-d830a7573bcebf26a6d...996c51.jpg]

[Image: vlcsnap-error978-jpg-2aa7eab789fa7848f73...71e524.jpg]

[Image: tdown.png]

For Only Vip Members

Romancing the Stone (1984) Bluray Remux 1080p AVC DTS-HD MA 5.1 VIP
Reply


Possibly Related Threads…
Thread Author Replies Views Last Post
  Paris Texas (1984) Bluray REMUX 1080p TR-EN AVC DTS-HD MA 5.1-BdC admin 0 829 01-08-2020, 03:52 PM
Last Post: admin
  Gremlins 1-2 (1984-1990) Bluray Remux 1080p VC-1 TrueHD 5.1 admin 0 765 08-21-2019, 01:27 PM
Last Post: admin
  Hands of Stone (2016) Bluray Remux 1080p AVC DTS-HD MA 5.1 admin 0 801 07-15-2019, 03:07 PM
Last Post: admin
  Amadeus (1984) Bluray Remux 1080p VC-1 TrueHD 5.1 admin 0 813 07-09-2019, 11:56 AM
Last Post: admin
  Conan the Destroyer (1984) Bluray Remux 1080p AVC DTS-HD MA 5.1 admin 0 796 07-08-2019, 10:12 AM
Last Post: admin

Forum Jump:


Users browsing this thread: 3 Guest(s)

Powered By MyBB
Theme By Audentio Design
Updated By iAndrew | 2018