Thread Rating:
  • 0 Vote(s) - 0 Average
  • 1
  • 2
  • 3
  • 4
  • 5

[-]
Tags
bluray j israel 1080 avc 2017 esq roman hd ma 1 remux dts 5

  Roman J Israel Esq (2017) Bluray Remux 1080 AVC DTS-HD MA 5.1
#1
Roman J Israel Esq (2017) Bluray Remux 1080 AVC DTS-HD MA 5.1

[Image: tt6000478.jpg]

[Image: imdb.png]
https://www.imdb.com/title/tt6000478/

[Image: info.png]
Roman J. Israel, Esq. 2017 EN.mkv
Format                      : Matroska
Format version              : Version 4 / Version 2
File size                   : 24.5 GiB
Duration                    : 2 h 2 min
Overall bit rate mode       : Variable
Overall bit rate            : 28.7 Mb/s
Movie name                  : Roman J. Israel, Esq.
Encoded date                : UTC 2018-02-20 20:15:29
Writing application         : mkvmerge v20.0.0 ('I Am The Sun') 64-bit
Writing library             : libebml v1.3.5 + libmatroska v1.4.8

Video
ID                          : 1
Format                      : AVC
Format/Info                 : Advanced Video Codec
Format profile              : [email protected]
Format settings             : CABAC / 2 Ref Frames
Format settings, CABAC      : Yes
Format settings, ReFrames   : 2 frames
Format settings, GOP        : M=1, N=10
Codec ID                    : V_MPEG4/ISO/AVC
Duration                    : 2 h 2 min
Bit rate mode               : Variable
Bit rate                    : 24.9 Mb/s
Width                       : 1 920 pixels
Height                      : 1 080 pixels
Display aspect ratio        : 16:9
Frame rate mode             : Constant
Frame rate                  : 23.976 (24000/1001) FPS
Color space                 : YUV
Chroma subsampling          : 4:2:0
Bit depth                   : 8 bits
Scan type                   : Progressive
Bits/(Pixel*Frame)          : 0.502
Stream size                 : 21.3 GiB (87%)
Title                       : Roman J. Israel, Esq.
Language                    : English
Default                     : Yes
Forced                      : No

Audio
ID                          : 2
Format                      : DTS
Format/Info                 : Digital Theater Systems
Format profile              : MA / Core
Codec ID                    : A_DTS
Duration                    : 2 h 2 min
Bit rate mode               : Variable / Constant
Bit rate                    : 3 673 kb/s / 1 509 kb/s
Channel(s)                  : 6 channels
Channel positions           : Front: L C R, Side: L R, LFE
Sampling rate               : 48.0 kHz
Frame rate                  : 93.750 FPS (512 SPF)
Bit depth                   : 24 bits
Compression mode            : Lossless / Lossy
Stream size                 : 3.14 GiB (13%)
Title                       : English
Language                    : English
Default                     : Yes
Forced                      : No

Text #1
ID                          : 3
Format                      : PGS
Muxing mode                 : zlib
Codec ID                    : S_HDMV/PGS
Codec ID/Info               : Picture based subtitle format used on BDs/HD-DVDs
Duration                    : 1 h 52 min
Bit rate                    : 41.8 kb/s
Count of elements           : 3092
Stream size                 : 33.7 MiB (0%)
Title                       : English
Language                    : English
Default                     : No
Forced                      : No

Text #2
ID                          : 4
Format                      : PGS
Muxing mode                 : zlib
Codec ID                    : S_HDMV/PGS
Codec ID/Info               : Picture based subtitle format used on BDs/HD-DVDs
Duration                    : 1 h 53 min
Bit rate                    : 41.1 kb/s
Count of elements           : 3056
Stream size                 : 33.3 MiB (0%)
Title                       : Turkish
Language                    : Turkish
Default                     : Yes
Forced                      : No

[Image: 34003718188_eca79ffcee_b.jpg]

[Image: 34003719308_43050bf432_b.jpg]

[Image: tdown.png]

For Only Vip Members

Roman J Israel Esq (2017) Bluray Remux 1080 AVC DTS-HD MA 5.1 VIP
Reply


Possibly Related Threads…
Thread Author Replies Views Last Post
  Vicky Cristina Barcelona (2008) Bluray Remux 1080 AVC DTS-HD MA 3.0 admin 0 327 08-23-2019, 01:27 PM
Last Post: admin
  Roman J Israel Esq (2017) Bluray Remux 1080p TR-EN AVC DTS-HD MA 5.1 admin 0 518 05-21-2019, 05:21 PM
Last Post: admin
  Pet Sematary 1-2 (1989-1992) Bluray Remux 1080 AVC DTS-HD MA 5.1 admin 0 540 05-14-2019, 04:25 PM
Last Post: admin
  Certified Copy (2010) Bluray Remux 1080 AVC DTS-HD MA 5.1 admin 0 457 05-06-2019, 01:52 PM
Last Post: admin
  Morgan (2016) Bluray Remux TR-EN 1080 AVC DTS 5.1 admin 0 524 03-29-2019, 02:21 PM
Last Post: admin

Forum Jump:


Users browsing this thread: 1 Guest(s)

Powered By MyBB
Theme By Audentio Design
Updated By iAndrew | 2018