Thread Rating:
  • 0 Vote(s) - 0 Average
  • 1
  • 2
  • 3
  • 4
  • 5

[-]
Tags
bluray avc 1080p robocop en hd ma 1 1993 2 remux 1987 dts 1990 5 tr 3

 
  RoboCop 1-2-3 (1987-1990-1993) Bluray Remux 1080p TR-EN AVC DTS-HD MA 5.1
#1
RoboCop 1-2-3 (1987-1990-1993) Bluray Remux 1080p TR-EN AVC DTS-HD MA 5.1

[Image: tt0093870.jpg]

[Image: imdb.png]
https://www.imdb.com/title/tt0093870/

[Image: info.png]
RoboCop 1 1987 TR EN.mkv
Format                      : Matroska
Format version              : Version 4 / Version 2
File size                   : 22.1 GiB
Duration                    : 1 h 43 min
Overall bit rate mode       : Variable
Overall bit rate            : 30.7 Mb/s
Movie name                  : RoboCop
Encoded date                : UTC 2017-10-20 15:34:42
Writing application         : mkvmerge v17.0.0 ('Be Ur Friend') 64-bit
Writing library             : libebml v1.3.5 + libmatroska v1.4.8

Video
ID                          : 1
Format                      : AVC
Format/Info                 : Advanced Video Codec
Format profile              : [email protected]
Format settings, CABAC      : Yes
Format settings, ReFrames   : 4 frames
Codec ID                    : V_MPEG4/ISO/AVC
Duration                    : 1 h 43 min
Bit rate mode               : Variable
Bit rate                    : 27.0 Mb/s
Maximum bit rate            : 28.5 Mb/s
Width                       : 1 920 pixels
Height                      : 1 080 pixels
Display aspect ratio        : 16:9
Frame rate mode             : Constant
Frame rate                  : 23.976 (24000/1001) FPS
Color space                 : YUV
Chroma subsampling          : 4:2:0
Bit depth                   : 8 bits
Scan type                   : Progressive
Bits/(Pixel*Frame)          : 0.543
Stream size                 : 19.5 GiB (88%)
Title                       : RoboCop
Language                    : English
Default                     : Yes
Forced                      : No

Audio #1
ID                          : 2
Format                      : DTS
Format/Info                 : Digital Theater Systems
Format profile              : MA / Core
Mode                        : 16
Format settings, Endianness : Big
Codec ID                    : A_DTS
Duration                    : 1 h 43 min
Bit rate mode               : Variable / Constant
Bit rate                    : 3 433 kb/s / 1 509 kb/s
Channel(s)                  : 6 channels
Channel positions           : Front: L C R, Side: L R, LFE
Sampling rate               : 48.0 kHz
Frame rate                  : 93.750 FPS (512 spf)
Bit depth                   : 24 bits
Compression mode            : Lossless / Lossy
Stream size                 : 2.48 GiB (11%)
Title                       : English
Language                    : English
Default                     : Yes
Forced                      : No

Audio #2
ID                          : 3
Format                      : AC-3
Format/Info                 : Audio Coding 3
Format settings, Endianness : Big
Codec ID                    : A_AC3
Duration                    : 1 h 43 min
Bit rate mode               : Constant
Bit rate                    : 192 kb/s
Channel(s)                  : 2 channels
Channel positions           : Front: L R
Sampling rate               : 48.0 kHz
Frame rate                  : 31.250 FPS (1536 spf)
Bit depth                   : 16 bits
Compression mode            : Lossy
Stream size                 : 142 MiB (1%)
Title                       : Turkish
Language                    : Turkish
Service kind                : Complete Main
Default                     : No
Forced                      : No

Text #1
ID                          : 4
Format                      : PGS
Muxing mode                 : zlib
Codec ID                    : S_HDMV/PGS
Codec ID/Info               : Picture based subtitle format used on BDs/HD-DVDs
Duration                    : 1 h 36 min
Bit rate                    : 37.2 kb/s
Count of elements           : 2658
Stream size                 : 25.6 MiB (0%)
Title                       : English
Language                    : English
Default                     : No
Forced                      : No

Text #2
ID                          : 5
Format                      : PGS
Muxing mode                 : zlib
Codec ID                    : S_HDMV/PGS
Codec ID/Info               : Picture based subtitle format used on BDs/HD-DVDs
Duration                    : 1 h 36 min
Bit rate                    : 32.4 kb/s
Count of elements           : 2006
Stream size                 : 22.2 MiB (0%)
Title                       : Turkish
Language                    : Turkish
Default                     : Yes
Forced                      : No

[Image: vlcsnap-error122-jpg-2b8a93b2570848c38ce...ca2ec5.jpg]

[Image: vlcsnap-error545-jpg-8c4e9d6b70f85c837c9...31321c.jpg]

[Image: tdown.png]

For Only Vip Members

RoboCop 1-2-3 (1987-1990-1993) Bluray Remux 1080p TR-EN AVC DTS-HD MA 5.1 VIP
Reply


Possibly Related Threads…
Thread Author Replies Views Last Post
  The Rift 1990 1080p Blu-ray Remux AVC FLAC 2.0 - KRaLiMaRKo KAiJu 0 2 Yesterday, 07:26 AM
Last Post: KAiJu
  Radio Days 1987 1080p Blu-ray Remux AVC DTS-HD MA 1.0 - KRaLiMaRKo KAiJu 0 11 11-15-2021, 09:00 PM
Last Post: KAiJu
  Ticks 1993 1080p Blu-ray Remux AVC DTS-HD MA 2 0-HDT KAiJu 0 16 11-04-2021, 12:51 PM
Last Post: KAiJu
  Scalps 1987 1080p Blu-ray Remux AVC FLAC 2.0 - KRaLiMaRKo KAiJu 0 17 11-04-2021, 12:45 PM
Last Post: KAiJu
  The Scent of Green Papaya 1993 1080p Blu-ray Remux AVC LPCM 2 0-HDT KAiJu 0 48 10-18-2021, 10:09 AM
Last Post: KAiJu

Forum Jump:


Users browsing this thread: 1 Guest(s)

Powered By MyBB
RSS RSS Syndication
Updated By iAndrew | 2021