Thread Rating:
  • 0 Vote(s) - 0 Average
  • 1
  • 2
  • 3
  • 4
  • 5

[-]
Tags
dd mpeg bluray evil 1080p en 2004 apocalypse 1 remux 5 tr resident

 
  Resident Evil Apocalypse (2004) Bluray Remux 1080p TR-EN MPEG DD 5.1
#1
Resident Evil Apocalypse (2004) Bluray Remux 1080p TR-EN MPEG DD 5.1

[Image: tt0318627.jpg]

[Image: imdb.png]
https://www.imdb.com/title/tt0318627/

[Image: info.png]
Resident Evil Apocalypse 2004 TR EN.mkv
Format                      : Matroska
Format version              : Version 4 / Version 2
File size                   : 12.5 GiB
Duration                    : 1 h 33 min
Overall bit rate mode       : Variable
Overall bit rate            : 19.1 Mb/s
Movie name                  : Resident Evil: Apocalypse
Encoded date                : UTC 2015-12-10 11:36:04
Writing application         : mkvmerge v8.3.0 ('Over the Horizon') 64bit
Writing library             : libebml v1.3.1 + libmatroska v1.4.2

Video
ID                          : 1
Format                      : MPEG Video
Format version              : Version 2
Format profile              : [email protected]
Format settings, BVOP       : Yes
Format settings, Matrix     : Custom
Format settings, GOP        : M=3, N=15
Codec ID                    : V_MPEG2
Codec ID/Info               : MPEG 1 or 2 Video
Duration                    : 1 h 33 min
Bit rate mode               : Variable
Bit rate                    : 18.0 Mb/s
Maximum bit rate            : 30.0 Mb/s
Width                       : 1 920 pixels
Height                      : 1 080 pixels
Display aspect ratio        : 16:9
Frame rate mode             : Constant
Frame rate                  : 23.976 (24000/1001) FPS
Color space                 : YUV
Chroma subsampling          : 4:2:0
Bit depth                   : 8 bits
Scan type                   : Progressive
Compression mode            : Lossy
Bits/(Pixel*Frame)          : 0.363
Time code of first frame    : 00:59:58:00
Time code source            : Group of pictures header
GOP, Open/Closed            : Open
GOP, Open/Closed of first f : Closed
Stream size                 : 11.8 GiB (95%)
Title                       : Resident Evil: Apocalypse
Language                    : English
Default                     : Yes
Forced                      : No

Audio #1
ID                          : 2
Format                      : AC-3
Format/Info                 : Audio Coding 3
Format settings, Endianness : Big
Codec ID                    : A_AC3
Duration                    : 1 h 33 min
Bit rate mode               : Constant
Bit rate                    : 384 kb/s
Channel(s)                  : 6 channels
Channel positions           : Front: L C R, Side: L R, LFE
Sampling rate               : 48.0 kHz
Frame rate                  : 31.250 FPS (1536 spf)
Bit depth                   : 16 bits
Compression mode            : Lossy
Stream size                 : 258 MiB (2%)
Title                       : Turkish
Language                    : Turkish
Service kind                : Complete Main
Default                     : No
Forced                      : No

Audio #2
ID                          : 3
Format                      : AC-3
Format/Info                 : Audio Coding 3
Format settings, Endianness : Big
Codec ID                    : A_AC3
Duration                    : 1 h 33 min
Bit rate mode               : Constant
Bit rate                    : 640 kb/s
Channel(s)                  : 6 channels
Channel positions           : Front: L C R, Side: L R, LFE
Sampling rate               : 48.0 kHz
Frame rate                  : 31.250 FPS (1536 spf)
Bit depth                   : 16 bits
Compression mode            : Lossy
Stream size                 : 429 MiB (3%)
Title                       : English
Language                    : English
Service kind                : Complete Main
Default                     : Yes
Forced                      : No

Text #1
ID                          : 4
Format                      : PGS
Muxing mode                 : zlib
Codec ID                    : S_HDMV/PGS
Codec ID/Info               : Picture based subtitle format used on BDs/HD-DVDs
Duration                    : 1 h 27 min
Bit rate                    : 9 830 b/s
Count of elements           : 1298
Stream size                 : 6.19 MiB (0%)
Title                       : English
Language                    : English
Default                     : No
Forced                      : No

Text #2
ID                          : 5
Format                      : PGS
Muxing mode                 : zlib
Codec ID                    : S_HDMV/PGS
Codec ID/Info               : Picture based subtitle format used on BDs/HD-DVDs
Duration                    : 1 h 28 min
Bit rate                    : 4 239 b/s
Count of elements           : 1302
Stream size                 : 2.70 MiB (0%)
Title                       : Turkish
Language                    : English
Default                     : Yes
Forced                      : No

[Image: vlcsnap-error629-jpg-8669f6963ead94754b0...41e3ca.jpg]

[Image: vlcsnap-error963-jpg-1d39a96a50539fe8d9c...d01d75.jpg]

[Image: tdown.png]

For Only Vip Members

Resident Evil Apocalypse (2004) Bluray Remux 1080p TR-EN MPEG DD 5.1 VIP
Reply


Possibly Related Threads…
Thread Author Replies Views Last Post
  Christmas with the Kranks 2004 1080p Blu-ray Remux AVC DTS-HD MA 5.1-MPN KAiJu 0 4 12-02-2021, 07:24 AM
Last Post: KAiJu
  Belle Fille Ploetzlich Schwiegertochter 2020 1080p Blu-ray Remux MPEG-2 DTS-HD MA 5.1 KAiJu 0 9 11-28-2021, 08:25 AM
Last Post: KAiJu
  Volition 2019 1080p Blu-ray Remux MPEG-2 DTS-HD MA 5.1-HDT KAiJu 0 17 11-25-2021, 10:16 AM
Last Post: KAiJu
  The Brown Bunny 2003 1080p BluRay Remux MPEG-2 AC-3-NoGRP KAiJu 0 31 10-31-2021, 09:00 PM
Last Post: KAiJu
  Thunderbird 2019 1080p Blu-ray Remux MPEG-2 DTS-HD MA 2 0-HDT KAiJu 0 32 10-24-2021, 09:22 AM
Last Post: KAiJu

Forum Jump:


Users browsing this thread: 1 Guest(s)

Powered By MyBB
RSS RSS Syndication
Updated By iAndrew | 2021