Thread Rating:
  • 0 Vote(s) - 0 Average
  • 1
  • 2
  • 3
  • 4
  • 5

[-]
Tags
2000 dd bluray titans avc 1080p the 1 remux remember 5

 
  Remember the Titans (2000) Bluray Remux 1080p AVC DD 5.1
#1
Remember the Titans (2000) Bluray Remux 1080p AVC DD 5.1

[Image: tt0210945.jpg]

[Image: imdb.png]
https://www.imdb.com/title/tt0210945/

[Image: info.png]
Remember the Titans 2000 TR EN.mkv
Format : Matroska
Format version : Version 4 / Version 2
File size : 19.6 GiB
Duration : 1 h 53 min
Overall bit rate mode : Variable
Overall bit rate : 24.6 Mb/s
Movie name : Remember the Titans
Encoded date : UTC 2016-03-02 08:23:06
Writing application : mkvmerge v8.3.0 ('Over the Horizon') 64bit
Writing library : libebml v1.3.1 + libmatroska v1.4.2

Video
ID : 1
Format : AVC
Format/Info : Advanced Video Codec
Format profile : [email protected]
Format settings, CABAC : Yes
Format settings, ReFrames : 3 frames
Format settings, GOP : M=3, N=24
Codec ID : V_MPEG4/ISO/AVC
Duration : 1 h 53 min
Bit rate mode : Variable
Bit rate : 23.8 Mb/s
Maximum bit rate : 40.0 Mb/s
Width : 1 920 pixels
Height : 1 080 pixels
Display aspect ratio : 16:9
Frame rate mode : Constant
Frame rate : 23.976 (24000/1001) FPS
Color space : YUV
Chroma subsampling : 4:2:0
Bit depth : 8 bits
Scan type : Progressive
Bits/(Pixel*Frame) : 0.480
Stream size : 18.9 GiB (96%)
Title : Remember the Titans
Language : English
Default : Yes
Forced : No

Audio #1
ID : 2
Format : AC-3
Format/Info : Audio Coding 3
Format settings, Endianness : Big
Codec ID : A_AC3
Duration : 1 h 53 min
Bit rate mode : Constant
Bit rate : 640 kb/s
Channel(s) : 6 channels
Channel positions : Front: L C R, Side: L R, LFE
Sampling rate : 48.0 kHz
Frame rate : 31.250 FPS (1536 spf)
Bit depth : 16 bits
Compression mode : Lossy
Stream size : 519 MiB (3%)
Title : English
Language : English
Service kind : Complete Main
Default : Yes
Forced : No

Audio #2
ID : 3
Format : AC-3
Format/Info : Audio Coding 3
Format settings, Endianness : Big
Codec ID : A_AC3
Duration : 1 h 53 min
Bit rate mode : Constant
Bit rate : 192 kb/s
Channel(s) : 2 channels
Channel positions : Front: L R
Sampling rate : 48.0 kHz
Frame rate : 31.250 FPS (1536 spf)
Bit depth : 16 bits
Compression mode : Lossy
Stream size : 156 MiB (1%)
Title : Turkish
Language : Turkish
Service kind : Complete Main
Default : No
Forced : No

Text #1
ID : 4
Format : PGS
Muxing mode : zlib
Codec ID : S_HDMV/PGS
Codec ID/Info : Picture based subtitle format used on BDs/HD-DVDs
Duration : 1 h 45 min
Bit rate : 15.2 kb/s
Count of elements : 4298
Stream size : 11.5 MiB (0%)
Title : English
Language : English
Default : No
Forced : No

Text #2
ID : 5
Format : PGS
Muxing mode : zlib
Codec ID : S_HDMV/PGS
Codec ID/Info : Picture based subtitle format used on BDs/HD-DVDs
Duration : 1 h 52 min
Bit rate : 24.5 kb/s
Count of elements : 3024
Stream size : 19.8 MiB (0%)
Title : Turkish
Language : Turkish
Default : Yes
Forced : No

[Image: vlcsnap-error137-jpg-65a5b14bb32eabff57d...969c2b.jpg]

[Image: vlcsnap-error160-jpg-fbf116c13fc5f9b86b3...cd0a61.jpg]

[Image: tdown.png]

For Only Vip Members

How To Become a VIP
Reply


Possibly Related Threads…
Thread Author Replies Views Last Post
  The Dish 2000 1080p BluRay REMUX AVC DTS-HD MA 5.1-EPSiLON KAiJu 0 13 05-15-2022, 08:06 AM
Last Post: KAiJu
  Shadow Of The Vampire 2000 1080p BluRay REMUX VC-1 DTS-HR 5 1-EPSiLON KAiJu 0 18 05-12-2022, 09:49 AM
Last Post: KAiJu
  Finding Forrester 2000 1080p Blu-ray Remux AVC DTS-HD MA 5.1 - KRaLiMaRKo KAiJu 0 33 05-03-2022, 07:52 AM
Last Post: KAiJu
  Faithless 2000 1080p Blu-ray Remux AVC DTS-HD MA 5.1-HDT KAiJu 0 32 04-19-2022, 09:56 AM
Last Post: KAiJu
  Harry Un Ami Qui Vous Veut Du Bien 2000 1080p Blu-ray Remux AVC DTS-HD MA 5.1-HDT KAiJu 0 74 03-19-2022, 01:28 PM
Last Post: KAiJu

Forum Jump:


Users browsing this thread: 1 Guest(s)

Powered By MyBB
RSS RSS Syndication
Updated By iAndrew | 2022