Thread Rating:
  • 0 Vote(s) - 0 Average
  • 1
  • 2
  • 3
  • 4
  • 5

[-]
Tags
dd bluray over avc 1080p 2007 me reign 1 remux 5

  Reign Over Me (2007) Bluray Remux 1080p AVC DD 5.1
#1
Reign Over Me (2007) Bluray Remux 1080p AVC DD 5.1

[Image: tt0490204.jpg]

[Image: imdb.png]
https://www.imdb.com/title/tt0490204/

[Image: info.png]
Reign Over Me 2007 EN.mkv
Format                      : Matroska
Format version              : Version 4 / Version 2
File size                   : 23.4 GiB
Duration                    : 2 h 4 min
Overall bit rate mode       : Variable
Overall bit rate            : 26.9 Mb/s
Movie name                  : Reign Over Me
Encoded date                : UTC 2015-01-31 09:59:48
Writing application         : mkvmerge v7.5.0 ('Glass Culture') 64bit built on Jan  4 2015 16:48:44
Writing library             : libebml v1.3.1 + libmatroska v1.4.2

Video
ID                          : 1
Format                      : AVC
Format/Info                 : Advanced Video Codec
Format profile              : [email protected]
Format settings             : CABAC / 2 Ref Frames
Format settings, CABAC      : Yes
Format settings, ReFrames   : 2 frames
Codec ID                    : V_MPEG4/ISO/AVC
Duration                    : 2 h 4 min
Bit rate mode               : Variable
Bit rate                    : 26.2 Mb/s
Width                       : 1 920 pixels
Height                      : 1 080 pixels
Display aspect ratio        : 16:9
Frame rate mode             : Constant
Frame rate                  : 23.976 (24000/1001) FPS
Color space                 : YUV
Chroma subsampling          : 4:2:0
Bit depth                   : 8 bits
Scan type                   : Progressive
Bits/(Pixel*Frame)          : 0.527
Stream size                 : 22.8 GiB (97%)
Title                       : Reign Over Me
Language                    : English
Default                     : Yes
Forced                      : No

Audio
ID                          : 2
Format                      : AC-3
Format/Info                 : Audio Coding 3
Codec ID                    : A_AC3
Duration                    : 2 h 4 min
Bit rate mode               : Constant
Bit rate                    : 640 kb/s
Channel(s)                  : 6 channels
Channel positions           : Front: L C R, Side: L R, LFE
Sampling rate               : 48.0 kHz
Frame rate                  : 31.250 FPS (1536 SPF)
Bit depth                   : 16 bits
Compression mode            : Lossy
Stream size                 : 570 MiB (2%)
Title                       : English
Language                    : English
Service kind                : Complete Main
Default                     : Yes
Forced                      : No

Text #1
ID                          : 3
Format                      : PGS
Muxing mode                 : zlib
Codec ID                    : S_HDMV/PGS
Codec ID/Info               : Picture based subtitle format used on BDs/HD-DVDs
Duration                    : 1 h 57 min
Bit rate                    : 16.7 kb/s
Count of elements           : 3276
Stream size                 : 14.0 MiB (0%)
Title                       : English
Language                    : English
Default                     : No
Forced                      : No

Text #2
ID                          : 4
Format                      : PGS
Muxing mode                 : zlib
Codec ID                    : S_HDMV/PGS
Codec ID/Info               : Picture based subtitle format used on BDs/HD-DVDs
Duration                    : 1 h 57 min
Bit rate                    : 15.4 kb/s
Count of elements           : 3272
Stream size                 : 12.9 MiB (0%)
Title                       : Turkish
Language                    : Turkish
Default                     : Yes
Forced                      : No

[Image: 47091427794_517e9416f3_b.jpg]

[Image: 47828791312_1af4ef2b2e_b.jpg]

[Image: tdown.png]

For Only Vip Members

Reign Over Me (2007) Bluray Remux 1080p AVC DD 5.1 VIP
Reply


Possibly Related Threads…
Thread Author Replies Views Last Post
  Hostel Trilogy (2005-2007-2011) Bluray REMUX 1080p AVC DD 5.1-HuSe admin 0 196 03-09-2020, 05:57 PM
Last Post: admin
  Pars Kiraz Operasyonu (2007) Bluray Remux 1080p MPEG2 DD 5.1 admin 0 295 12-29-2019, 06:05 PM
Last Post: admin
  The Brave One (2007) Bluray Remux 1080p VC-1 TrueHD 5.1 admin 0 422 08-24-2019, 11:54 AM
Last Post: admin
  Mongol (2007) Bluray Remux 1080p TR MN VC-1 DD 5.1 admin 0 333 08-22-2019, 09:26 PM
Last Post: admin
  Planet Terror (2007) Bluray Remux 1080p AVC DTS-HD MA 5.1 admin 0 329 08-20-2019, 12:16 PM
Last Post: admin

Forum Jump:


Users browsing this thread: 1 Guest(s)

Powered By MyBB
Theme By Audentio Design
Updated By iAndrew | 2018