Thread Rating:
  • 0 Vote(s) - 0 Average
  • 1
  • 2
  • 3
  • 4
  • 5

[-]
Tags
bluray quest zhu avc 1080p en hd ma 1 2011 remux for dts 5 tr

  Quest for Zhu (2011) Bluray Remux 1080p TR-EN AVC DTS-HD MA 5.1
#1
Quest for Zhu (2011) Bluray Remux 1080p TR-EN AVC DTS-HD MA 5.1

[Image: tt2073154.jpg]

[Image: imdb.png]
https://www.imdb.com/title/tt2073154/

[Image: info.png]
Quest for Zhu 2011 TR EN.mkv
Format                      : Matroska
Format version              : Version 4 / Version 2
File size                   : 13.3 GiB
Duration                    : 1 h 12 min
Overall bit rate mode       : Variable
Overall bit rate            : 26.1 Mb/s
Encoded date                : UTC 2014-07-31 23:49:10
Writing application         : mkvmerge v7.1.0 ('Good Love') 64bit built on Jul 27 2014 13:06:55
Writing library             : libebml v1.3.0 + libmatroska v1.4.1

Video
ID                          : 1
Format                      : AVC
Format/Info                 : Advanced Video Codec
Format profile              : [email protected]
Format settings, CABAC      : Yes
Format settings, ReFrames   : 4 frames
Format settings, GOP        : M=1, N=12
Codec ID                    : V_MPEG4/ISO/AVC
Duration                    : 1 h 12 min
Bit rate mode               : Variable
Bit rate                    : 22.9 Mb/s
Maximum bit rate            : 25.0 Mb/s
Width                       : 1 920 pixels
Height                      : 1 080 pixels
Display aspect ratio        : 16:9
Frame rate mode             : Constant
Frame rate                  : 23.976 (24000/1001) FPS
Color space                 : YUV
Chroma subsampling          : 4:2:0
Bit depth                   : 8 bits
Scan type                   : Progressive
Bits/(Pixel*Frame)          : 0.461
Stream size                 : 11.7 GiB (88%)
Title                       : Quest for Zhu
Language                    : English
Default                     : Yes
Forced                      : No

Audio #1
ID                          : 2
Format                      : DTS
Format/Info                 : Digital Theater Systems
Format profile              : MA / Core
Mode                        : 16
Format settings, Endianness : Big
Codec ID                    : A_DTS
Duration                    : 1 h 12 min
Bit rate mode               : Variable / Constant
Bit rate                    : 2 376 kb/s / 1 509 kb/s
Channel(s)                  : 6 channels
Channel positions           : Front: L C R, Side: L R, LFE
Sampling rate               : 48.0 kHz
Frame rate                  : 93.750 FPS (512 spf)
Bit depth                   : 16 bits
Compression mode            : Lossless / Lossy
Stream size                 : 1.21 GiB (9%)
Title                       : English
Language                    : English
Default                     : Yes
Forced                      : No

Audio #2
ID                          : 3
Format                      : DTS
Format/Info                 : Digital Theater Systems
Mode                        : 16
Format settings, Endianness : Big
Codec ID                    : A_DTS
Duration                    : 1 h 12 min
Bit rate mode               : Constant
Bit rate                    : 768 kb/s
Channel(s)                  : 6 channels
Channel positions           : Front: L C R, Side: L R, LFE
Sampling rate               : 48.0 kHz
Frame rate                  : 93.750 FPS (512 spf)
Bit depth                   : 24 bits
Compression mode            : Lossy
Stream size                 : 401 MiB (3%)
Title                       : Turkish
Language                    : Turkish
Default                     : No
Forced                      : No

Text
ID                          : 4
Format                      : PGS
Muxing mode                 : zlib
Codec ID                    : S_HDMV/PGS
Codec ID/Info               : Picture based subtitle format used on BDs/HD-DVDs
Duration                    : 1 h 11 min
Bit rate                    : 25 b/s
Count of elements           : 8
Stream size                 : 13.3 KiB (0%)
Title                       : Turkish
Language                    : Turkish
Default                     : Yes
Forced                      : No

[Image: vlcsnap-error070-jpg-a03f3a8d1d94b86e152...eaa158.jpg]

[Image: vlcsnap-error761-jpg-eec87d9f8fc523c70b2...9be5ad.jpg]

[Image: tdown.png]

For Only Vip Members

Quest for Zhu (2011) Bluray Remux 1080p TR-EN AVC DTS-HD MA 5.1 VIP
Reply


Forum Jump:


Users browsing this thread: 1 Guest(s)

Powered By MyBB
Theme By Audentio Design
Updated By iAndrew | 2018