Thread Rating:
  • 0 Vote(s) - 0 Average
  • 1
  • 2
  • 3
  • 4
  • 5

[-]
Tags
bluray desert 2015 queen avc 1080p of the hd ma 1 remux dts 5

  Queen of the Desert (2015) Bluray remux 1080p AVC DTS-HD MA 5.1
#1
Queen of the Desert (2015) Bluray remux 1080p AVC DTS-HD MA 5.1

[Image: tt1837636.jpg]

[Image: imdb.png]
https://www.imdb.com/title/tt1837636/

[Image: info.png]
Queen of the Desert 2015 EN.mkv
Format                      : Matroska
Format version              : Version 4 / Version 2
File size                   : 23.1 GiB
Duration                    : 2 h 8 min
Overall bit rate mode       : Variable
Overall bit rate            : 25.8 Mb/s
Movie name                  : Queen of the Desert
Encoded date                : UTC 2016-11-01 19:10:17
Writing application         : mkvmerge v9.5.0 ('Quiet Fire') 64bit
Writing library             : libebml v1.3.4 + libmatroska v1.4.5

Video
ID                          : 1
Format                      : AVC
Format/Info                 : Advanced Video Codec
Format profile              : [email protected]
Format settings, CABAC      : Yes
Format settings, ReFrames   : 4 frames
Codec ID                    : V_MPEG4/ISO/AVC
Duration                    : 2 h 8 min
Bit rate mode               : Variable
Bit rate                    : 24.0 Mb/s
Maximum bit rate            : 35.0 Mb/s
Width                       : 1 920 pixels
Height                      : 1 080 pixels
Display aspect ratio        : 16:9
Frame rate mode             : Constant
Frame rate                  : 24.000 FPS
Standard                    : NTSC
Color space                 : YUV
Chroma subsampling          : 4:2:0
Bit depth                   : 8 bits
Scan type                   : Progressive
Bits/(Pixel*Frame)          : 0.482
Stream size                 : 21.5 GiB (93%)
Title                       : Queen of the Desert
Language                    : English
Default                     : Yes
Forced                      : No
Color range                 : Limited
Color primaries             : BT.709
Transfer characteristics    : BT.709
Matrix coefficients         : BT.709

Audio
ID                          : 2
Format                      : DTS
Format/Info                 : Digital Theater Systems
Format profile              : MA / Core
Mode                        : 16
Format settings, Endianness : Big
Codec ID                    : A_DTS
Duration                    : 2 h 8 min
Bit rate mode               : Variable / Constant
Bit rate                    : 1 807 kb/s / 1 509 kb/s
Channel(s)                  : 6 channels
Channel positions           : Front: L C R, Side: L R, LFE
Sampling rate               : 48.0 kHz
Frame rate                  : 93.750 FPS (512 spf)
Bit depth                   : 16 bits
Compression mode            : Lossless / Lossy
Stream size                 : 1.62 GiB (7%)
Title                       : English
Language                    : English
Default                     : Yes
Forced                      : No

Text
ID                          : 3
Format                      : PGS
Muxing mode                 : zlib
Codec ID                    : S_HDMV/PGS
Codec ID/Info               : Picture based subtitle format used on BDs/HD-DVDs
Duration                    : 2 h 1 min
Bit rate                    : 12.0 kb/s
Count of elements           : 2468
Stream size                 : 10.4 MiB (0%)
Title                       : Turkish
Language                    : Turkish
Default                     : Yes
Forced                      : No

[Image: vlcsnap-error481-jpg-f318799f23fdfc0f76d...175e29.jpg]

[Image: vlcsnap-error699-jpg-39142f63273e6cb0d43...db7b06.jpg]

[Image: tdown.png]

For Only Vip Members

Queen of the Desert (2015) Bluray remux 1080p AVC DTS-HD MA 5.1 VIP
Reply


Possibly Related Threads…
Thread Author Replies Views Last Post
  Mary Queen of Scots (2018) Bluray Remux 1080p AVC TrueHD 5.1 admin 0 790 07-12-2019, 02:23 PM
Last Post: admin

Forum Jump:


Users browsing this thread: 1 Guest(s)

Powered By MyBB
Theme By Audentio Design
Updated By iAndrew | 2018