Thread Rating:
  • 0 Vote(s) - 0 Average
  • 1
  • 2
  • 3
  • 4
  • 5

[-]
Tags
wonder bluray professor avc 1080p women 2017 the en marston hd ma and remux dts tr

  Professor Marston and the Wonder Women (2017) Bluray Remux 1080p TR-EN AVC DTS-HD MA
#1
Professor Marston and the Wonder Women (2017) Bluray Remux 1080p TR-EN AVC DTS-HD MA 5.1

[Image: tt6133130.jpg]

[Image: imdb.png]
https://www.imdb.com/title/tt6133130/

[Image: info.png]
Professor Marston and the Wonder Women 2017 TR EN.mkv
Format                      : Matroska
Format version              : Version 4 / Version 2
File size                   : 20.9 GiB
Duration                    : 1 h 48 min
Overall bit rate mode       : Variable
Overall bit rate            : 27.7 Mb/s
Movie name                  : Professor Marston and the Wonder Women
Encoded date                : UTC 2018-02-10 13:10:12
Writing application         : mkvmerge v20.0.0 ('I Am The Sun') 64-bit
Writing library             : libebml v1.3.5 + libmatroska v1.4.8

Video
ID                          : 1
Format                      : AVC
Format/Info                 : Advanced Video Codec
Format profile              : [email protected]
Format settings             : CABAC / 2 Ref Frames
Format settings, CABAC      : Yes
Format settings, ReFrames   : 2 frames
Codec ID                    : V_MPEG4/ISO/AVC
Duration                    : 1 h 48 min
Bit rate mode               : Variable
Bit rate                    : 24.9 Mb/s
Width                       : 1 920 pixels
Height                      : 1 080 pixels
Display aspect ratio        : 16:9
Frame rate mode             : Constant
Frame rate                  : 23.976 (24000/1001) FPS
Color space                 : YUV
Chroma subsampling          : 4:2:0
Bit depth                   : 8 bits
Scan type                   : Progressive
Bits/(Pixel*Frame)          : 0.500
Stream size                 : 18.8 GiB (90%)
Title                       : Professor Marston and the Wonder Women
Language                    : English
Default                     : Yes
Forced                      : No

Audio #1
ID                          : 2
Format                      : DTS
Format/Info                 : Digital Theater Systems
Format profile              : MA / Core
Codec ID                    : A_DTS
Duration                    : 1 h 48 min
Bit rate mode               : Variable / Constant
Bit rate                    : 2 107 kb/s / 1 509 kb/s
Channel(s)                  : 6 channels
Channel positions           : Front: L C R, Side: L R, LFE
Sampling rate               : 48.0 kHz
Frame rate                  : 93.750 FPS (512 SPF)
Bit depth                   : 16 bits
Compression mode            : Lossless / Lossy
Stream size                 : 1.60 GiB (8%)
Title                       : English
Language                    : English
Default                     : Yes
Forced                      : No

Audio #2
ID                          : 3
Format                      : AC-3
Format/Info                 : Audio Coding 3
Codec ID                    : A_AC3
Duration                    : 1 h 48 min
Bit rate mode               : Constant
Bit rate                    : 640 kb/s
Channel(s)                  : 6 channels
Channel positions           : Front: L C R, Side: L R, LFE
Sampling rate               : 48.0 kHz
Frame rate                  : 31.250 FPS (1536 SPF)
Bit depth                   : 16 bits
Compression mode            : Lossy
Stream size                 : 496 MiB (2%)
Title                       : Turkish
Language                    : Turkish
Service kind                : Complete Main
Default                     : No
Forced                      : No

Text #1
ID                          : 4
Format                      : PGS
Muxing mode                 : zlib
Codec ID                    : S_HDMV/PGS
Codec ID/Info               : Picture based subtitle format used on BDs/HD-DVDs
Duration                    : 1 h 45 min
Bit rate                    : 32.8 kb/s
Count of elements           : 2619
Stream size                 : 24.7 MiB (0%)
Title                       : English
Language                    : English
Default                     : No
Forced                      : No

Text #2
ID                          : 5
Format                      : PGS
Muxing mode                 : zlib
Codec ID                    : S_HDMV/PGS
Codec ID/Info               : Picture based subtitle format used on BDs/HD-DVDs
Duration                    : 1 h 47 min
Bit rate                    : 28.9 kb/s
Count of elements           : 2264
Stream size                 : 22.1 MiB (0%)
Title                       : Turkish
Language                    : Turkish
Default                     : Yes
Forced                      : No

[Image: vlcsnap-error300-jpg-1e45d27c858efc21a48...d063c1.jpg]

[Image: vlcsnap-error623-jpg-937adf59e23aaa42366...4ec86b.jpg]

[Image: tdown.png]

For Only Vip Members

Professor Marston and the Wonder Women (2017) Bluray Remux 1080p TR-EN AVC DTS-HD MA VIP
Reply


Possibly Related Threads…
Thread Author Replies Views Last Post
  Little Women (2019) Bluray REMUX 1080p AVC DTS-HD MA 5.1-HuSe AbrA 0 288 03-30-2020, 09:46 PM
Last Post: AbrA
  Men Women Children (2014) Bluray Remux 1080p AVC DTS-HD MA 5.1 admin 0 385 08-21-2019, 07:57 PM
Last Post: admin
  The Professor (2018) Bluray Remux 1080p AVC DTS-HD MA 5.1 admin 0 285 08-21-2019, 12:36 PM
Last Post: admin
  The Professor and the Madman (2019) Bluray Remux 1080p AVC DTS-HD MA 5.1 admin 0 394 08-17-2019, 07:09 AM
Last Post: admin

Forum Jump:


Users browsing this thread: 1 Guest(s)

Powered By MyBB
Theme By Audentio Design
Updated By iAndrew | 2018