Thread Rating:
  • 0 Vote(s) - 0 Average
  • 1
  • 2
  • 3
  • 4
  • 5

[-]
Tags
bluray pretty woman avc 1080p en hd ma 1 remux dts 1990 5 tr

  Pretty Woman (1990) Bluray Remux 1080p TR-EN AVC DTS-HD MA 5.1
#1
Pretty Woman (1990) Bluray Remux 1080p TR-EN AVC DTS-HD MA 5.1

[Image: pretty.woman.jpg]

[Image: imdb.png]
https://www.imdb.com/title/tt0100405/

[Image: info.png]
Pretty Woman 1990 TR EN.mkv
Format                      : Matroska
Format version              : Version 4 / Version 2
File size                   : 24.9 GiB
Duration                    : 1 h 59 min
Overall bit rate mode       : Variable
Overall bit rate            : 29.8 Mb/s
Movie name                  : Pretty Woman
Encoded date                : UTC 2017-02-08 19:02:07
Writing application         : mkvmerge v9.8.0 ('Kuglblids') 64bit
Writing library             : libebml v1.3.4 + libmatroska v1.4.5

Video
ID                          : 1
Format                      : AVC
Format/Info                 : Advanced Video Codec
Format profile              : [email protected]
Format settings, CABAC      : Yes
Format settings, ReFrames   : 4 frames
Codec ID                    : V_MPEG4/ISO/AVC
Duration                    : 1 h 59 min
Bit rate mode               : Variable
Bit rate                    : 29.0 Mb/s
Maximum bit rate            : 35.0 Mb/s
Width                       : 1 920 pixels
Height                      : 1 080 pixels
Display aspect ratio        : 16:9
Frame rate mode             : Constant
Frame rate                  : 23.976 (24000/1001) FPS
Color space                 : YUV
Chroma subsampling          : 4:2:0
Bit depth                   : 8 bits
Scan type                   : Progressive
Bits/(Pixel*Frame)          : 0.583
Stream size                 : 24.2 GiB (97%)
Title                       : Pretty Woman
Language                    : English
Default                     : Yes
Forced                      : No
Color range                 : Limited
Color primaries             : BT.709
Transfer characteristics    : BT.709
Matrix coefficients         : BT.709

Audio #1
ID                          : 2
Format                      : AC-3
Format/Info                 : Audio Coding 3
Format settings, Endianness : Big
Codec ID                    : A_AC3
Duration                    : 1 h 59 min
Bit rate mode               : Constant
Bit rate                    : 640 kb/s
Channel(s)                  : 6 channels
Channel positions           : Front: L C R, Side: L R, LFE
Sampling rate               : 48.0 kHz
Frame rate                  : 31.250 FPS (1536 spf)
Bit depth                   : 16 bits
Compression mode            : Lossy
Stream size                 : 548 MiB (2%)
Title                       : English
Language                    : English
Service kind                : Complete Main
Default                     : Yes
Forced                      : No

Audio #2
ID                          : 3
Format                      : AC-3
Format/Info                 : Audio Coding 3
Format settings, Endianness : Big
Codec ID                    : A_AC3
Duration                    : 1 h 59 min
Bit rate mode               : Constant
Bit rate                    : 192 kb/s
Channel(s)                  : 2 channels
Channel positions           : Front: L R
Sampling rate               : 48.0 kHz
Frame rate                  : 31.250 FPS (1536 spf)
Bit depth                   : 16 bits
Compression mode            : Lossy
Stream size                 : 165 MiB (1%)
Title                       : Turkish
Language                    : Turkish
Service kind                : Complete Main
Default                     : No
Forced                      : No

Text #1
ID                          : 4
Format                      : PGS
Muxing mode                 : zlib
Codec ID                    : S_HDMV/PGS
Codec ID/Info               : Picture based subtitle format used on BDs/HD-DVDs
Duration                    : 1 h 56 min
Bit rate                    : 11.7 kb/s
Count of elements           : 3136
Stream size                 : 9.71 MiB (0%)
Title                       : English
Language                    : English
Default                     : No
Forced                      : No

Text #2
ID                          : 5
Format                      : PGS
Muxing mode                 : zlib
Codec ID                    : S_HDMV/PGS
Codec ID/Info               : Picture based subtitle format used on BDs/HD-DVDs
Duration                    : 1 h 56 min
Bit rate                    : 16.0 kb/s
Count of elements           : 3134
Stream size                 : 13.3 MiB (0%)
Title                       : Turkish
Language                    : Turkish
Default                     : Yes
Forced                      : No

[Image: vlcsnap-error408-jpg-22025787ff28505c9aa...ccabd5.jpg]

[Image: vlcsnap-error799-jpg-c2b4a0e9e6fd5817d8b...fb0435.jpg]

[Image: tdown.png]

For Only Vip Members

Pretty Woman (1990) Bluray Remux 1080p TR-EN AVC DTS-HD MA 5.1 VIP
Reply


Possibly Related Threads…
Thread Author Replies Views Last Post
  Trust 1990 1080p Blu-ray Remux AVC FLAC 1.0 - KRaLiMaRKo KAiJu 0 74 10-27-2020, 03:18 PM
Last Post: KAiJu
  The Hunt for Red October (1990) Bluray REMUX 1080p AVC TrueHD 5.1-HUSe AbrA 0 122 10-05-2020, 01:58 PM
Last Post: AbrA
  Night of the Living Dead (1990) Bluray Remux 1080p AVC DTS-HD MA 5.1 admin 1 1,177 03-27-2020, 10:43 AM
Last Post: prodigalson1
  Home Alone 1-2 (1990-1992) Bluray Remux 1080p AVC DD 5.1-MiXeD admin 0 791 12-28-2019, 06:40 PM
Last Post: admin
  Pacific Heights (1990) Bluray Remux 1080p AVC DTS 5.1 admin 0 789 08-30-2019, 11:54 AM
Last Post: admin

Forum Jump:


Users browsing this thread: 1 Guest(s)

Powered By MyBB
Theme By Audentio Design
Updated By iAndrew | 2018