Thread Rating:
  • 0 Vote(s) - 0 Average
  • 1
  • 2
  • 3
  • 4
  • 5

[-]
Tags
evolution bluray planet 810p x264 of the prodji 1968 2011 dts collection apes

  Planet of the Apes Evolution Collection (1968-2011) Bluray 810p x264 DTS-PRoDJi
#1
Planet of the Apes Evolution Collection (1968-2011) Bluray 810p x264 DTS-PRoDJi

[Image: apes7.jpg]

[Image: imdb.png]
https://www.imdb.com/title/tt0063442/
https://www.imdb.com/title/tt0065462/
https://www.imdb.com/title/tt0067065/
https://www.imdb.com/title/tt0068408/
https://www.imdb.com/title/tt0069768/
https://www.imdb.com/title/tt0133152/
https://www.imdb.com/title/tt1318514/

[Image: info.png]
Format : Matroska
Format version : Version 4
File size : 4.52 GiB
Duration : 1 h 52 min
Overall bit rate mode : Variable
Overall bit rate : 5 778 kb/s
Encoded date : UTC 2014-07-13 21:54:10
Writing application : mkvmerge v7.0.0 ('Where We Going') 64bit built on Jun 9 2014 15:16:27
Writing library : libebml v1.3.0 + libmatroska v1.4.1

Video
ID : 1
Format : AVC
Format/Info : Advanced Video Codec
Format profile : [email protected]
Format settings : CABAC / 3 Ref Frames
Format settings, CABAC : Yes
Format settings, RefFrames : 3 frames
Codec ID : V_MPEG4/ISO/AVC
Duration : 1 h 52 min
Bit rate mode : Variable
Bit rate : 4 825 kb/s
Maximum bit rate : 40.0 Mb/s
Width : 1 440 pixels
Height : 608 pixels
Display aspect ratio : 2.35:1
Frame rate mode : Constant
Frame rate : 23.976 FPS
Color space : YUV
Chroma subsampling : 4:2:0
Bit depth : 8 bits
Scan type : Progressive
Bits/(Pixel*Frame) : 0.230
Stream size : 3.78 GiB (84%)
Title : @4825Kbps High Profiles @L4.1
Writing library : x264 core 120 r2164 da19765
Encoding settings : cabac=1 / ref=4 / deblock=1:-3:-3 / analyse=0x3:0x113 / me=hex / subme=9 / psy=1 / psy_rd=1.00:0.00 / mixed_ref=1 / me_range=16 / chroma_me=1 / trellis=1 / 8x8dct=1 / cqm=0 / deadzone=21,11 / fast_pskip=1 / chroma_qp_offset=-2 / threads=4 / sliced_threads=0 / slices=4 / nr=0 / decimate=1 / interlaced=0 / bluray_compat=1 / constrained_intra=0 / bframes=3 / b_pyramid=1 / b_adapt=1 / b_bias=0 / direct=1 / weightb=1 / open_gop=1 / weightp=0 / keyint=23 / keyint_min=1 / scenecut=40 / intra_refresh=0 / rc_lookahead=23 / rc=2pass / mbtree=1 / bitrate=4825 / ratetol=1.0 / qcomp=0.60 / qpmin=0 / qpmax=69 / qpstep=4 / cplxblur=20.0 / qblur=0.5 / vbv_maxrate=40000 / vbv_bufsize=30000 / nal_hrd=vbr / ip_ratio=1.40 / aq=1:1.00
Language : English
Default : Yes
Forced : No
Color range : Limited
Color primaries : BT.709
Transfer characteristics : BT.709
Matrix coefficients : BT.709

Audio #1
ID : 2
Format : DTS
Format/Info : Digital Theater Systems
Codec ID : A_DTS
Duration : 1 h 52 min
Bit rate mode : Constant
Bit rate : 755 kb/s
Channel(s) : 6 channels
Channel layout : C L R Ls Rs LFE
Sampling rate : 48.0 kHz
Frame rate : 93.750 FPS (512 SPF)
Bit depth : 24 bits
Compression mode : Lossy
Delay relative to video : 150 ms
Stream size : 605 MiB (13%)
Title : [email protected] 6 Ch Eng
Language : English
Default : Yes
Forced : No

Audio #2
ID : 18
Format : AC-3
Format/Info : Audio Coding 3
Commercial name : Dolby Digital
Codec ID : A_AC3
Duration : 1 h 50 min
Bit rate mode : Constant
Bit rate : 192 kb/s
Channel(s) : 2 channels
Channel layout : L R
Sampling rate : 48.0 kHz
Frame rate : 31.250 FPS (1536 SPF)
Bit depth : 16 bits
Compression mode : Lossy
Delay relative to video : 2 s 0 ms
Stream size : 152 MiB (3%)
Title : [email protected] 2 Ch Tr
Language : Turkish
Service kind : Complete Main
Default : No
Forced : No

Text #1
ID : 3
Format : UTF-8
Codec ID : S_TEXT/UTF8
Codec ID/Info : UTF-8 Plain Text
Duration : 1 h 50 min
Bit rate : 43 b/s
Count of elements : 1047
Stream size : 35.2 KiB (0%)
Language : English
Default : No
Forced : No

Text #2
ID : 4
Format : UTF-8
Codec ID : S_TEXT/UTF8
Codec ID/Info : UTF-8 Plain Text
Duration : 1 h 50 min
Bit rate : 40 b/s
Count of elements : 744
Stream size : 32.7 KiB (0%)
Language : Turkish
Default : No
Forced : No

Text #3
ID : 5
Format : UTF-8
Codec ID : S_TEXT/UTF8
Codec ID/Info : UTF-8 Plain Text
Duration : 1 h 51 min
Bit rate : 99 b/s
Count of elements : 1036
Stream size : 81.7 KiB (0%)
Language : Arabic
Default : No
Forced : No

Text #4
ID : 6
Format : UTF-8
Codec ID : S_TEXT/UTF8
Codec ID/Info : UTF-8 Plain Text
Duration : 1 h 50 min
Bit rate : 32 b/s
Count of elements : 938
Stream size : 26.2 KiB (0%)
Language : Croatian
Default : No
Forced : No

Text #5
ID : 7
Format : UTF-8
Codec ID : S_TEXT/UTF8
Codec ID/Info : UTF-8 Plain Text
Duration : 1 h 50 min
Bit rate : 33 b/s
Count of elements : 1015
Stream size : 27.5 KiB (0%)
Language : Czech
Default : No
Forced : No

Text #6
ID : 8
Format : UTF-8
Codec ID : S_TEXT/UTF8
Codec ID/Info : UTF-8 Plain Text
Duration : 1 h 51 min
Bit rate : 42 b/s
Count of elements : 1028
Stream size : 35.1 KiB (0%)
Language : Danish
Default : No
Forced : No

Text #7
ID : 9
Format : UTF-8
Codec ID : S_TEXT/UTF8
Codec ID/Info : UTF-8 Plain Text
Duration : 1 h 50 min
Bit rate : 43 b/s
Count of elements : 935
Stream size : 35.3 KiB (0%)
Language : Finnish
Default : No
Forced : No

Text #8
ID : 10
Format : UTF-8
Codec ID : S_TEXT/UTF8
Codec ID/Info : UTF-8 Plain Text
Duration : 1 h 50 min
Bit rate : 47 b/s
Count of elements : 1027
Stream size : 38.6 KiB (0%)
Language : French
Default : No
Forced : No

Text #9
ID : 11
Format : UTF-8
Codec ID : S_TEXT/UTF8
Codec ID/Info : UTF-8 Plain Text
Duration : 1 h 50 min
Bit rate : 77 b/s
Count of elements : 1030
Stream size : 63.3 KiB (0%)
Language : Greek
Default : No
Forced : No

Text #10
ID : 12
Format : UTF-8
Codec ID : S_TEXT/UTF8
Codec ID/Info : UTF-8 Plain Text
Duration : 1 h 50 min
Bit rate : 55 b/s
Count of elements : 1015
Stream size : 44.8 KiB (0%)
Language : Hebrew
Default : No
Forced : No

Text #11
ID : 13
Format : UTF-8
Codec ID : S_TEXT/UTF8
Codec ID/Info : UTF-8 Plain Text
Duration : 1 h 51 min
Bit rate : 42 b/s
Count of elements : 1029
Stream size : 35.1 KiB (0%)
Language : Italian
Default : No
Forced : No

Text #12
ID : 14
Format : UTF-8
Codec ID : S_TEXT/UTF8
Codec ID/Info : UTF-8 Plain Text
Duration : 1 h 51 min
Bit rate : 46 b/s
Count of elements : 1040
Stream size : 38.1 KiB (0%)
Language : Polish
Default : No
Forced : No

Text #13
ID : 15
Format : UTF-8
Codec ID : S_TEXT/UTF8
Codec ID/Info : UTF-8 Plain Text
Duration : 1 h 51 min
Bit rate : 48 b/s
Count of elements : 1029
Stream size : 39.7 KiB (0%)
Language : Portuguese
Default : No
Forced : No

Text #14
ID : 16
Format : UTF-8
Codec ID : S_TEXT/UTF8
Codec ID/Info : UTF-8 Plain Text
Duration : 1 h 50 min
Bit rate : 42 b/s
Count of elements : 1027
Stream size : 34.2 KiB (0%)
Language : Spanish
Default : No
Forced : No

Text #15
ID : 17
Format : UTF-8
Codec ID : S_TEXT/UTF8
Codec ID/Info : UTF-8 Plain Text
Duration : 1 h 50 min
Bit rate : 46 b/s
Count of elements : 1026
Stream size : 37.5 KiB (0%)
Language : Swedish
Default : No
Forced : No

Menu
00:00:00.000 : en:The Long Sleep
00:03:26.998 : en:Main Titles
00:05:24.032 : en:Crash Landing
00:11:36.487 : en:The Expedition
00:19:01.515 : en:The Seekers
00:21:10.728 : en:Life
00:24:43.607 : en:Scarecrows
00:27:52.379 : en:The Clothes Snatchers
00:31:04.112 : en:The Hunt
00:36:14.506 : en:Zira
00:38:09.412 : enBig Grinr. Zaius
00:42:57.450 : en:Cornelius
00:46:18.192 : en:"My Name is Taylor"
00:48:08.385 : en:"It's a Stunt"
00:53:46.598 : en:No Escape
01:00:15.612 : en:"It's Madhouse!"
01:03:40.358 : en:The Hearing
01:10:58.546 : en:New Identity
01:12:59.542 : en:Talking Heresy
01:16:37.718 : en:Zaius' Fear
01:20:55.392 : en:The Abduction
01:27:04.344 : en:The Forbidden Zone
01:29:52.220 : en:On the Beach
01:34:18.027 : en:The Cave
01:38:39.622 : en:The Hostage
01:43:44.427 : en:Saying Goodbye
01:48:48.856 : en:The Revelation
01:51:17.671 : en:Cast of Characters

[Image: 1.jpg]

[Image: 2.jpg]

[Image: tdown.png]

For Only Vip Members
Reply


Possibly Related Threads…
Thread Author Replies Views Last Post
  DC Showcase The Spectre (2010) BluRay 1080p DTS x264-PRoDJi admin 2 328 07-24-2019, 06:27 PM
Last Post: admin
  DC Universe Animaton Movie (1993-2008) Boxset Bluray 1080p TR-EN x264 DTS 5.1-PRoDJi admin 0 88 07-20-2019, 05:30 PM
Last Post: admin
  The Rite (2011) Bluray 1080p DUAL DTS x264-NoGroup admin 0 158 06-02-2019, 06:03 PM
Last Post: admin
  The House (1985-1992) Collection BluRay 1080p DTS x264-PRoDJi admin 3 452 05-13-2019, 02:39 PM
Last Post: Brooks
  Scream Movie Collection (1996-2011) Bluray 1080p TR-EN x264-NoGroup admin 0 204 05-12-2019, 08:00 PM
Last Post: admin

Forum Jump:


Users browsing this thread: 1 Guest(s)

Powered By MyBB
Theme By Audentio Design
Updated By iAndrew | 2018