Thread Rating:
  • 0 Vote(s) - 0 Average
  • 1
  • 2
  • 3
  • 4
  • 5

[-]
Tags
dd mpeg wall bluray floyd pink 1080p the 1 remux 5 1982

 
  Pink Floyd The Wall (1982) Bluray Remux 1080p MPEG DD 5.1
#1
Pink Floyd The Wall (1982) Bluray Remux 1080p MPEG DD 5.1

[Image: tt0084503.jpg]

[Image: imdb.png]
https://www.imdb.com/title/tt0084503/

[Image: info.png]
Pink Floyd The Wall 1982 EN.mkv
Format                      : Matroska
Format version              : Version 4 / Version 2
File size                   : 11.9 GiB
Duration                    : 1 h 35 min
Overall bit rate mode       : Variable
Overall bit rate            : 17.9 Mb/s
Movie name                  : Pink Floyd The Wall
Encoded date                : UTC 2016-01-21 06:51:27
Writing application         : mkvmerge v8.3.0 ('Over the Horizon') 64bit
Writing library             : libebml v1.3.1 + libmatroska v1.4.2

Video
ID                          : 1
Format                      : MPEG Video
Format version              : Version 2
Format profile              : [email protected]
Format settings, BVOP       : Yes
Format settings, Matrix     : Custom
Format settings, GOP        : M=3, N=15
Format settings, picture st : Frame
Codec ID                    : V_MPEG2
Codec ID/Info               : MPEG 1 or 2 Video
Duration                    : 1 h 35 min
Bit rate mode               : Variable
Bit rate                    : 17.5 Mb/s
Width                       : 1 920 pixels
Height                      : 1 080 pixels
Display aspect ratio        : 16:9
Frame rate mode             : Constant
Frame rate                  : 29.970 (30000/1001) FPS
Color space                 : YUV
Chroma subsampling          : 4:2:0
Bit depth                   : 8 bits
Scan type                   : Interlaced
Scan order                  : Top Field First
Compression mode            : Lossy
Bits/(Pixel*Frame)          : 0.281
Time code of first frame    : 00:00:00;00
Time code source            : Group of pictures header
Stream size                 : 11.6 GiB (98%)
Title                       : Pink Floyd The Wall
Language                    : English
Default                     : Yes
Forced                      : No

Audio
ID                          : 2
Format                      : AC-3
Format/Info                 : Audio Coding 3
Format settings, Endianness : Big
Codec ID                    : A_AC3
Duration                    : 1 h 35 min
Bit rate mode               : Constant
Bit rate                    : 384 kb/s
Channel(s)                  : 6 channels
Channel positions           : Front: L C R, Side: L R, LFE
Sampling rate               : 48.0 kHz
Frame rate                  : 31.250 FPS (1536 spf)
Bit depth                   : 16 bits
Compression mode            : Lossy
Stream size                 : 261 MiB (2%)
Title                       : English
Language                    : English
Service kind                : Complete Main
Default                     : Yes
Forced                      : No

Text
ID                          : 3
Format                      : PGS
Muxing mode                 : zlib
Codec ID                    : S_HDMV/PGS
Codec ID/Info               : Picture based subtitle format used on BDs/HD-DVDs
Duration                    : 1 h 33 min
Bit rate                    : 5 598 b/s
Count of elements           : 1188
Stream size                 : 3.74 MiB (0%)
Title                       : Turkish
Language                    : Turkish
Default                     : Yes
Forced                      : No

[Image: vlcsnap-error455-jpg-f22cf752543cb3b34b2...5f1322.jpg]

[Image: vlcsnap-error521-jpg-a696ac65a6b547f17f5...a3a49d.jpg]

[Image: tdown.png]

For Only Vip Members

Pink Floyd The Wall (1982) Bluray Remux 1080p MPEG DD 5.1 VIP
Reply


Possibly Related Threads…
Thread Author Replies Views Last Post
  Belle Fille Ploetzlich Schwiegertochter 2020 1080p Blu-ray Remux MPEG-2 DTS-HD MA 5.1 KAiJu 0 9 11-28-2021, 08:25 AM
Last Post: KAiJu
  Volition 2019 1080p Blu-ray Remux MPEG-2 DTS-HD MA 5.1-HDT KAiJu 0 17 11-25-2021, 10:16 AM
Last Post: KAiJu
  The Brown Bunny 2003 1080p BluRay Remux MPEG-2 AC-3-NoGRP KAiJu 0 31 10-31-2021, 09:00 PM
Last Post: KAiJu
  Thunderbird 2019 1080p Blu-ray Remux MPEG-2 DTS-HD MA 2 0-HDT KAiJu 0 32 10-24-2021, 09:22 AM
Last Post: KAiJu
  The Benchwarmers 2006 1080p Blu-ray Remux MPEG-2 DTS-HD MA 5.1 - KRaLiMaRKo KAiJu 0 41 10-22-2021, 07:58 PM
Last Post: KAiJu

Forum Jump:


Users browsing this thread: 1 Guest(s)

Powered By MyBB
RSS RSS Syndication
Updated By iAndrew | 2021