Thread Rating:
  • 0 Vote(s) - 0 Average
  • 1
  • 2
  • 3
  • 4
  • 5

[-]
Tags
dd mpeg bluray kiraz 1080p operasyonu 2007 pars 1 remux 5

  Pars Kiraz Operasyonu (2007) Bluray Remux 1080p MPEG DD 5.1
#1
Pars Kiraz Operasyonu (2007) Bluray Remux 1080p MPEG DD 5.1

[Image: tt0884805.jpg]

[Image: imdb.png]
https://www.imdb.com/title/tt0884805/

[Image: info.png]
Pars Kiraz Operasyonu 2007 TR.mkv
Format                      : Matroska
Format version              : Version 4 / Version 2
File size                   : 12.3 GiB
Duration                    : 2 h 19 min
Overall bit rate mode       : Variable
Overall bit rate            : 12.6 Mb/s
Encoded date                : UTC 2014-04-28 20:36:57
Writing application         : mkvmerge v6.9.1 ('Blue Panther') 64bit built on Apr 18 2014 18:23:38
Writing library             : libebml v1.3.0 + libmatroska v1.4.1

Video
ID                          : 1
Format                      : MPEG Video
Format version              : Version 2
Format profile              : [email protected]
Format settings, BVOP       : Yes
Format settings, Matrix     : Custom
Format settings, GOP        : M=3, N=12
Format settings, picture st : Frame
Codec ID                    : V_MPEG2
Codec ID/Info               : MPEG 1 or 2 Video
Duration                    : 2 h 19 min
Bit rate mode               : Variable
Bit rate                    : 11.8 Mb/s
Maximum bit rate            : 20.0 Mb/s
Width                       : 1 920 pixels
Height                      : 1 080 pixels
Display aspect ratio        : 16:9
Frame rate mode             : Constant
Frame rate                  : 25.000 FPS
Standard                    : Component
Color space                 : YUV
Chroma subsampling          : 4:2:0
Bit depth                   : 8 bits
Scan type                   : Interlaced
Scan order                  : Top Field First
Compression mode            : Lossy
Bits/(Pixel*Frame)          : 0.227
Time code of first frame    : 00:00:00:00
Time code source            : Group of pictures header
GOP, Open/Closed            : Open
GOP, Open/Closed of first f : Closed
Stream size                 : 11.5 GiB (93%)
Title                       : Pars Kiraz Operasyonu
Writing library             : Atlas Multimedya - Pars Kiraz Operasyonu
Language                    : Turkish
Default                     : Yes
Forced                      : No
Color primaries             : BT.709
Transfer characteristics    : BT.709
Matrix coefficients         : BT.709

Audio #1
ID                          : 2
Format                      : AC-3
Format/Info                 : Audio Coding 3
Format settings, Endianness : Big
Codec ID                    : A_AC3
Duration                    : 2 h 19 min
Bit rate mode               : Constant
Bit rate                    : 448 kb/s
Channel(s)                  : 6 channels
Channel positions           : Front: L C R, Side: L R, LFE
Sampling rate               : 48.0 kHz
Frame rate                  : 31.250 FPS (1536 spf)
Bit depth                   : 16 bits
Compression mode            : Lossy
Stream size                 : 448 MiB (4%)
Title                       : Turkish
Language                    : Turkish
Service kind                : Complete Main
Default                     : Yes
Forced                      : No

Audio #2
ID                          : 3
Format                      : AC-3
Format/Info                 : Audio Coding 3
Format settings, Endianness : Big
Codec ID                    : A_AC3
Duration                    : 2 h 19 min
Bit rate mode               : Constant
Bit rate                    : 192 kb/s
Channel(s)                  : 2 channels
Channel positions           : Front: L R
Sampling rate               : 48.0 kHz
Frame rate                  : 31.250 FPS (1536 spf)
Bit depth                   : 16 bits
Compression mode            : Lossy
Stream size                 : 192 MiB (2%)
Title                       : Turkish
Language                    : Turkish
Service kind                : Complete Main
Default                     : No
Forced                      : No

Text
ID                          : 4
Format                      : PGS
Muxing mode                 : zlib
Codec ID                    : S_HDMV/PGS
Codec ID/Info               : Picture based subtitle format used on BDs/HD-DVDs
Title                       : English
Language                    : English
Default                     : No
Forced                      : No

[Image: vlcsnap-error587-jpg-f90e461a08ecf98a56b...93a4af.jpg]

[Image: vlcsnap-error643-jpg-4d791bc5077fe06e6b2...f0c1a6.jpg]

[Image: tdown.png]

For Only Vip Members

Pars Kiraz Operasyonu (2007) Bluray Remux 1080p MPEG DD 5.1 VIP
Reply


Possibly Related Threads…
Thread Author Replies Views Last Post
  Kabadayi (2007) Bluray Remux 1080p VC-1 DD 5.1 admin 0 817 05-25-2019, 08:42 AM
Last Post: admin
  Su ve Ates (2013) Bluray Remux 1080p MPEG-2 DTS 5.1 admin 0 940 05-19-2019, 04:10 PM
Last Post: admin
  Gecenin Kanatlari (2009) Bluray Remux 1080p MPEG-2 DTS-HD MA 5.1-BdC admin 0 1,083 05-03-2019, 07:30 PM
Last Post: admin

Forum Jump:


Users browsing this thread: 1 Guest(s)

Powered By MyBB
Theme By Audentio Design
Updated By iAndrew | 2018