Thread Rating:
  • 0 Vote(s) - 0 Average
  • 1
  • 2
  • 3
  • 4
  • 5

[-]
Tags
paranorman 2012 bluray avc 1080p en 1 remux dts 5 tr

  ParaNorman (2012) Bluray Remux 1080p TR-EN AVC DTS 5.1
#1
ParaNorman (2012) Bluray Remux 1080p TR-EN AVC DTS 5.1

[Image: tt1623288.jpg]

[Image: imdb.png]
https://www.imdb.com/title/tt1623288/

[Image: info.png]
ParaNorman 2012 TR EN.mkv
Format                      : Matroska
Format version              : Version 4 / Version 2
File size                   : 18.2 GiB
Duration                    : 1 h 32 min
Overall bit rate mode       : Variable
Overall bit rate            : 28.3 Mb/s
Encoded date                : UTC 2014-07-31 23:39:24
Writing application         : mkvmerge v7.1.0 ('Good Love') 64bit built on Jul 27 2014 13:06:55
Writing library             : libebml v1.3.0 + libmatroska v1.4.1

Video
ID                          : 1
Format                      : AVC
Format/Info                 : Advanced Video Codec
Format profile              : [email protected]
Format settings             : CABAC / 3 Ref Frames
Format settings, CABAC      : Yes
Format settings, ReFrames   : 3 frames
Format settings, GOP        : M=1, N=12
Codec ID                    : V_MPEG4/ISO/AVC
Duration                    : 1 h 32 min
Bit rate mode               : Variable
Bit rate                    : 23.9 Mb/s
Maximum bit rate            : 32.0 Mb/s
Width                       : 1 920 pixels
Height                      : 1 080 pixels
Display aspect ratio        : 16:9
Frame rate mode             : Constant
Frame rate                  : 23.976 (24000/1001) FPS
Color space                 : YUV
Chroma subsampling          : 4:2:0
Bit depth                   : 8 bits
Scan type                   : Progressive
Bits/(Pixel*Frame)          : 0.480
Stream size                 : 15.4 GiB (84%)
Title                       : ParaNorman
Language                    : English
Default                     : Yes
Forced                      : No

Audio #1
ID                          : 2
Format                      : DTS
Format/Info                 : Digital Theater Systems
Format profile              : MA / Core
Codec ID                    : A_DTS
Duration                    : 1 h 32 min
Bit rate mode               : Variable / Constant
Bit rate                    : 3 648 kb/s / 1 509 kb/s
Channel(s)                  : 6 channels
Channel positions           : Front: L C R, Side: L R, LFE
Sampling rate               : 48.0 kHz
Frame rate                  : 93.750 FPS (512 SPF)
Bit depth                   : 24 bits
Compression mode            : Lossless / Lossy
Stream size                 : 2.35 GiB (13%)
Title                       : English
Language                    : English
Default                     : Yes
Forced                      : No

Audio #2
ID                          : 3
Format                      : DTS
Format/Info                 : Digital Theater Systems
Codec ID                    : A_DTS
Duration                    : 1 h 32 min
Bit rate mode               : Constant
Bit rate                    : 768 kb/s
Channel(s)                  : 6 channels
Channel positions           : Front: L C R, Side: L R, LFE
Sampling rate               : 48.0 kHz
Frame rate                  : 93.750 FPS (512 SPF)
Bit depth                   : 24 bits
Compression mode            : Lossy
Stream size                 : 506 MiB (3%)
Title                       : Turkish
Language                    : Turkish
Default                     : No
Forced                      : No

Text #1
ID                          : 4
Format                      : PGS
Muxing mode                 : zlib
Codec ID                    : S_HDMV/PGS
Codec ID/Info               : Picture based subtitle format used on BDs/HD-DVDs
Duration                    : 1 h 24 min
Bit rate                    : 12.8 kb/s
Count of elements           : 2682
Stream size                 : 7.74 MiB (0%)
Title                       : English
Language                    : English
Default                     : No
Forced                      : No

Text #2
ID                          : 5
Format                      : PGS
Muxing mode                 : zlib
Codec ID                    : S_HDMV/PGS
Codec ID/Info               : Picture based subtitle format used on BDs/HD-DVDs
Duration                    : 1 h 32 min
Bit rate                    : 9 123 b/s
Count of elements           : 2143
Stream size                 : 6.01 MiB (0%)
Title                       : Turkish
Language                    : Turkish
Default                     : Yes
Forced                      : No

[Image: 32936661717_ea95c18dbb_b.jpg]

[Image: 32936662437_35e7fa5a59_b.jpg]

[Image: tdown.png]

For Only Vip Members

ParaNorman (2012) Bluray Remux 1080p TR-EN AVC DTS 5.1 VIP
Reply


Forum Jump:


Users browsing this thread: 1 Guest(s)

Powered By MyBB
Theme By Audentio Design
Updated By iAndrew | 2018