Thread Rating:
  • 0 Vote(s) - 0 Average
  • 1
  • 2
  • 3
  • 4
  • 5

[-]
Tags
dd mpeg bluray 1978 alley 1080p paradise 2 remux

 
  Paradise Alley (1978) Bluray Remux 1080p MPEG DD 2.0
#1
Paradise Alley (1978) Bluray Remux 1080p MPEG DD 2.0

[Image: tt0078056.jpg]

[Image: imdb.png]
https://www.imdb.com/title/tt0078056/

[Image: info.png]
Paradise Alley 1978 EN.mkv
Format                      : Matroska
Format version              : Version 4 / Version 2
File size                   : 17.5 GiB
Duration                    : 1 h 48 min
Overall bit rate            : 23.0 Mb/s
Movie name                  : Paradise Alley
Encoded date                : UTC 2016-10-30 12:21:45
Writing application         : mkvmerge v9.5.0 ('Quiet Fire') 64bit
Writing library             : libebml v1.3.4 + libmatroska v1.4.5

Video
ID                          : 1
Format                      : MPEG Video
Format version              : Version 2
Format profile              : [email protected]
Format settings, BVOP       : Yes
Format settings, Matrix     : Default
Format settings, GOP        : M=3, N=15
Codec ID                    : V_MPEG2
Codec ID/Info               : MPEG 1 or 2 Video
Duration                    : 1 h 48 min
Bit rate mode               : Constant
Bit rate                    : 22.8 Mb/s
Maximum bit rate            : 26.0 Mb/s
Width                       : 1 920 pixels
Height                      : 1 080 pixels
Display aspect ratio        : 16:9
Frame rate mode             : Constant
Frame rate                  : 23.976 (24000/1001) FPS
Color space                 : YUV
Chroma subsampling          : 4:2:0
Bit depth                   : 8 bits
Scan type                   : Progressive
Compression mode            : Lossy
Bits/(Pixel*Frame)          : 0.459
Time code of first frame    : 00:00:00:00
Time code source            : Group of pictures header
GOP, Open/Closed            : Closed
Stream size                 : 17.4 GiB (99%)
Title                       : Paradise Alley
Language                    : English
Default                     : Yes
Forced                      : No

Audio
ID                          : 2
Format                      : AC-3
Format/Info                 : Audio Coding 3
Format settings, Endianness : Big
Codec ID                    : A_AC3
Duration                    : 1 h 48 min
Bit rate mode               : Constant
Bit rate                    : 192 kb/s
Channel(s)                  : 2 channels
Channel positions           : Front: L R
Sampling rate               : 48.0 kHz
Frame rate                  : 31.250 FPS (1536 spf)
Bit depth                   : 16 bits
Compression mode            : Lossy
Stream size                 : 150 MiB (1%)
Title                       : English
Language                    : English
Service kind                : Complete Main
Default                     : Yes
Forced                      : No

Text
ID                          : 3
Format                      : PGS
Muxing mode                 : zlib
Codec ID                    : S_HDMV/PGS
Codec ID/Info               : Picture based subtitle format used on BDs/HD-DVDs
Duration                    : 1 h 45 min
Bit rate                    : 13.9 kb/s
Count of elements           : 2176
Stream size                 : 10.5 MiB (0%)
Title                       : Turkish
Language                    : Turkish
Default                     : Yes
Forced                      : No

[Image: SF7UFlo9_o.jpg]

[Image: 9IVVa7Xk_o.jpg]

[Image: tdown.png]

For Only Vip Members

Paradise Alley (1978) Bluray Remux 1080p MPEG DD 2.0 VIP
Reply


Possibly Related Threads…
Thread Author Replies Views Last Post
  Paradise Cove 2021 1080p Blu-ray Remux AVC DTS-HD MA 5.1-HDT KAiJu 0 1 05-20-2022, 10:02 AM
Last Post: KAiJu
  De Poel 2014 1080p Blu-ray Remux MPEG-2 DTS-HD MA 5.1-HDT KAiJu 0 15 05-15-2022, 08:19 AM
Last Post: KAiJu
  The Sentinel 2006 1080p BluRay REMUX MPEG-2 DTS-HD MA 5.1-Skoops KAiJu 0 13 05-12-2022, 09:55 AM
Last Post: KAiJu
  Dáblova past 1962 1080p Blu-ray Remux MPEG-2 FLAC 2 0-HDT KAiJu 0 32 05-05-2022, 12:56 PM
Last Post: KAiJu
  Laserblast 1978 1080p BluRay REMUX AVC DD 5 1-EPSiLON KAiJu 0 32 05-03-2022, 07:56 AM
Last Post: KAiJu

Forum Jump:


Users browsing this thread: 1 Guest(s)

Powered By MyBB
RSS RSS Syndication
Updated By iAndrew | 2022