Thread Rating:
  • 0 Vote(s) - 0 Average
  • 1
  • 2
  • 3
  • 4
  • 5

[-]
Tags
mpeg bluray dd5 1080p 1 remux paprika 2006

 
  Paprika (2006) Bluray Remux 1080p MPEG DD5.1
#1
Paprika (2006) Bluray Remux 1080p MPEG DD5.1

[Image: tt0851578.jpg]

[Image: imdb.png]
https://www.imdb.com/title/tt0851578/

[Image: info.png]
Paprika 2006 JPN.mkv
Format                      : Matroska
Format version              : Version 4 / Version 2
File size                   : 14.8 GiB
Duration                    : 1 h 30 min
Overall bit rate mode       : Variable
Overall bit rate            : 23.4 Mb/s
Movie name                  : Paprika
Encoded date                : UTC 2015-12-27 14:28:33
Writing application         : mkvmerge v8.3.0 ('Over the Horizon') 64bit
Writing library             : libebml v1.3.1 + libmatroska v1.4.2

Video
ID                          : 1
Format                      : MPEG Video
Format version              : Version 2
Format profile              : [email protected]
Format settings, BVOP       : Yes
Format settings, Matrix     : Default
Format settings, GOP        : M=3, N=15
Codec ID                    : V_MPEG2
Codec ID/Info               : MPEG 1 or 2 Video
Duration                    : 1 h 30 min
Bit rate mode               : Variable
Bit rate                    : 22.8 Mb/s
Maximum bit rate            : 33.0 Mb/s
Width                       : 1 920 pixels
Height                      : 1 080 pixels
Display aspect ratio        : 16:9
Frame rate mode             : Constant
Frame rate                  : 23.976 (24000/1001) FPS
Color space                 : YUV
Chroma subsampling          : 4:2:0
Bit depth                   : 8 bits
Scan type                   : Progressive
Compression mode            : Lossy
Bits/(Pixel*Frame)          : 0.458
Time code of first frame    : 01:00:00:00
Time code source            : Group of pictures header
GOP, Open/Closed            : Open
GOP, Open/Closed of first f : Closed
Stream size                 : 14.4 GiB (97%)
Title                       : Paprika
Language                    : Japanese
Default                     : Yes
Forced                      : No

Audio
ID                          : 2
Format                      : AC-3
Format/Info                 : Audio Coding 3
Format settings, Endianness : Big
Codec ID                    : A_AC3
Duration                    : 1 h 30 min
Bit rate mode               : Constant
Bit rate                    : 640 kb/s
Channel(s)                  : 6 channels
Channel positions           : Front: L C R, Side: L R, LFE
Sampling rate               : 48.0 kHz
Frame rate                  : 31.250 FPS (1536 spf)
Bit depth                   : 16 bits
Compression mode            : Lossy
Stream size                 : 414 MiB (3%)
Title                       : Japanese
Language                    : Japanese
Service kind                : Complete Main
Default                     : Yes
Forced                      : No

Text #1
ID                          : 3
Format                      : PGS
Muxing mode                 : zlib
Codec ID                    : S_HDMV/PGS
Codec ID/Info               : Picture based subtitle format used on BDs/HD-DVDs
Duration                    : 1 h 24 min
Bit rate                    : 10.9 kb/s
Count of elements           : 1618
Stream size                 : 6.64 MiB (0%)
Title                       : English
Language                    : English
Default                     : No
Forced                      : No

Text #2
ID                          : 4
Format                      : PGS
Muxing mode                 : zlib
Codec ID                    : S_HDMV/PGS
Codec ID/Info               : Picture based subtitle format used on BDs/HD-DVDs
Duration                    : 1 h 24 min
Bit rate                    : 12.4 kb/s
Count of elements           : 1628
Stream size                 : 7.55 MiB (0%)
Title                       : Turkish
Language                    : Turkish
Default                     : Yes
Forced                      : No

[Image: vlcsnap-error301-jpg-e74aac4af4e757358ce...3c1efe.jpg]

[Image: vlcsnap-error853-jpg-5f526c1fee8edecfdf8...30f5e4.jpg]

[Image: tdown.png]

For Only Vip Members

Paprika (2006) Bluray Remux 1080p MPEG DD5.1 VIP
Reply


Possibly Related Threads…
Thread Author Replies Views Last Post
  Trapped Ashes 2006 1080p Remux VC-1 DTS-HD MA 5.1-playBD KAiJu 0 1 05-19-2022, 01:12 PM
Last Post: KAiJu
  De Poel 2014 1080p Blu-ray Remux MPEG-2 DTS-HD MA 5.1-HDT KAiJu 0 15 05-15-2022, 08:19 AM
Last Post: KAiJu
  The Sentinel 2006 1080p BluRay REMUX MPEG-2 DTS-HD MA 5.1-Skoops KAiJu 0 16 05-12-2022, 09:55 AM
Last Post: KAiJu
  The Last Winter 2006 1080p Blu-ray Remux AVC DTS-HD MA 5.1 - KRaLiMaRKo KAiJu 0 18 05-09-2022, 12:07 PM
Last Post: KAiJu
  Dáblova past 1962 1080p Blu-ray Remux MPEG-2 FLAC 2 0-HDT KAiJu 0 32 05-05-2022, 12:56 PM
Last Post: KAiJu

Forum Jump:


Users browsing this thread: 1 Guest(s)

Powered By MyBB
RSS RSS Syndication
Updated By iAndrew | 2022