Thread Rating:
  • 0 Vote(s) - 0 Average
  • 1
  • 2
  • 3
  • 4
  • 5

[-]
Tags
bluray over avc 1080p the top 2 remux 1987 dts

  Over the Top (1987) Bluray Remux 1080p AVC DTS 2.0
#1
Over the Top (1987) Bluray Remux 1080p AVC DTS 2.0

[Image: tt0093692.jpg]

[Image: imdb.png]
https://www.imdb.com/title/tt0093692/

[Image: info.png]
Over the Top 1987 EN.mkv
Format                      : Matroska
Format version              : Version 4 / Version 2
File size                   : 16.8 GiB
Duration                    : 1 h 33 min
Overall bit rate mode       : Variable
Overall bit rate            : 25.7 Mb/s
Movie name                  : Over the Top
Encoded date                : UTC 2016-10-19 22:20:16
Writing application         : mkvmerge v8.3.0 ('Over the Horizon') 64bit
Writing library             : libebml v1.3.1 + libmatroska v1.4.2

Video
ID                          : 1
Format                      : AVC
Format/Info                 : Advanced Video Codec
Format profile              : [email protected]
Format settings             : CABAC / 2 Ref Frames
Format settings, CABAC      : Yes
Format settings, ReFrames   : 2 frames
Codec ID                    : V_MPEG4/ISO/AVC
Duration                    : 1 h 33 min
Bit rate mode               : Variable
Bit rate                    : 23.9 Mb/s
Width                       : 1 920 pixels
Height                      : 1 080 pixels
Display aspect ratio        : 16:9
Frame rate mode             : Constant
Frame rate                  : 23.976 (24000/1001) FPS
Color space                 : YUV
Chroma subsampling          : 4:2:0
Bit depth                   : 8 bits
Scan type                   : Progressive
Bits/(Pixel*Frame)          : 0.480
Stream size                 : 15.6 GiB (93%)
Title                       : Over the Top
Language                    : English
Default                     : Yes
Forced                      : No

Audio
ID                          : 2
Format                      : DTS
Format/Info                 : Digital Theater Systems
Format profile              : MA / Core
Codec ID                    : A_DTS
Duration                    : 1 h 33 min
Bit rate mode               : Variable / Constant
Bit rate                    : 1 752 kb/s / 768 kb/s
Channel(s)                  : 2 channels
Channel positions           :  / Front: L R
Sampling rate               : 48.0 kHz
Frame rate                  : 93.750 FPS (512 SPF)
Bit depth                   : 24 bits
Compression mode            : Lossless / Lossy
Stream size                 : 1.15 GiB (7%)
Title                       : English
Language                    : English
Default                     : Yes
Forced                      : No

Text #1
ID                          : 3
Format                      : PGS
Muxing mode                 : zlib
Codec ID                    : S_HDMV/PGS
Codec ID/Info               : Picture based subtitle format used on BDs/HD-DVDs
Duration                    : 1 h 33 min
Bit rate                    : 11.9 kb/s
Count of elements           : 2088
Stream size                 : 7.93 MiB (0%)
Title                       : English
Language                    : English
Default                     : No
Forced                      : No

Text #2
ID                          : 4
Format                      : PGS
Muxing mode                 : zlib
Codec ID                    : S_HDMV/PGS
Codec ID/Info               : Picture based subtitle format used on BDs/HD-DVDs
Duration                    : 1 h 25 min
Bit rate                    : 12.6 kb/s
Count of elements           : 1710
Stream size                 : 7.72 MiB (0%)
Title                       : Turkish
Language                    : Turkish
Default                     : Yes
Forced                      : No

[Image: 47880645541_4d9ca0c000_b.jpg]

[Image: 47091184154_180fbe10f4_b.jpg]

[Image: tdown.png]

For Only Vip Members

Over the Top (1987) Bluray Remux 1080p AVC DTS 2.0 VIP
Reply


Possibly Related Threads…
Thread Author Replies Views Last Post
  Good Morning Vietnam (1987) Bluray Remux 1080p AVC DTS-HD MA 5.1 admin 0 374 08-24-2019, 11:41 AM
Last Post: admin
  Delirium (1987) Bluray Remux 1080p AVC DTS-HD MA 2.0 admin 0 328 08-23-2019, 01:36 PM
Last Post: admin
  The Witches of Eastwick (1987) Bluray Remux 1080p VC-1 DTS-HD MA 5.1 admin 0 374 07-27-2019, 11:31 AM
Last Post: admin
  Escape from Sobibor (1987) Bluray Remux 1080p AVC DTS-HD MA 2.0 admin 0 530 07-24-2019, 11:08 AM
Last Post: admin
  Opera (1987) Bluray Remux 1080p IT EN AVC DTS-HD MA 5.1 admin 0 411 07-22-2019, 11:46 AM
Last Post: admin

Forum Jump:


Users browsing this thread: 1 Guest(s)

Powered By MyBB
Theme By Audentio Design
Updated By iAndrew | 2018