Thread Rating:
  • 0 Vote(s) - 0 Average
  • 1
  • 2
  • 3
  • 4
  • 5

[-]
Tags
bluray evil ouija avc origin 1080p of 2016 hd ma 1 remux dts 5

  Ouija Origin of Evil (2016) Bluray Remux 1080p AVC DTS-HD MA 5.1
#1
Ouija Origin of Evil (2016) Bluray Remux 1080p AVC DTS-HD MA 5.1

[Image: tt4361050.jpg]

[Image: imdb.png]
https://www.imdb.com/title/tt4361050/

[Image: info.png]
Ouija Origin of Evil 2016 EN.mkv
Format                      : Matroska
Format version              : Version 4 / Version 2
File size                   : 23.7 GiB
Duration                    : 1 h 38 min
Overall bit rate mode       : Variable
Overall bit rate            : 34.3 Mb/s
Movie name                  : Ouija: Origin of Evil
Encoded date                : UTC 2017-02-12 13:00:00
Writing application         : mkvmerge v9.8.0 ('Kuglblids') 64bit
Writing library             : libebml v1.3.4 + libmatroska v1.4.5

Video
ID                          : 1
Format                      : AVC
Format/Info                 : Advanced Video Codec
Format profile              : [email protected]
Format settings, CABAC      : Yes
Format settings, ReFrames   : 4 frames
Codec ID                    : V_MPEG4/ISO/AVC
Duration                    : 1 h 38 min
Bit rate mode               : Variable
Bit rate                    : 30.8 Mb/s
Maximum bit rate            : 34.0 Mb/s
Width                       : 1 920 pixels
Height                      : 1 080 pixels
Display aspect ratio        : 16:9
Frame rate mode             : Constant
Frame rate                  : 23.976 (24000/1001) FPS
Color space                 : YUV
Chroma subsampling          : 4:2:0
Bit depth                   : 8 bits
Scan type                   : Progressive
Bits/(Pixel*Frame)          : 0.619
Stream size                 : 21.3 GiB (90%)
Title                       : Ouija: Origin of Evil
Language                    : English
Default                     : Yes
Forced                      : No

Audio
ID                          : 2
Format                      : DTS
Format/Info                 : Digital Theater Systems
Format profile              : MA / Core
Mode                        : 16
Format settings, Endianness : Big
Codec ID                    : A_DTS
Duration                    : 1 h 38 min
Bit rate mode               : Variable / Constant
Bit rate                    : 3 458 kb/s / 1 509 kb/s
Channel(s)                  : 6 channels
Channel positions           : Front: L C R, Side: L R, LFE
Sampling rate               : 48.0 kHz
Frame rate                  : 93.750 FPS (512 spf)
Bit depth                   : 24 bits
Compression mode            : Lossless / Lossy
Stream size                 : 2.39 GiB (10%)
Title                       : English
Language                    : English
Default                     : Yes
Forced                      : No

Text #1
ID                          : 3
Format                      : PGS
Muxing mode                 : zlib
Codec ID                    : S_HDMV/PGS
Codec ID/Info               : Picture based subtitle format used on BDs/HD-DVDs
Duration                    : 1 h 38 min
Bit rate                    : 9 049 b/s
Count of elements           : 2324
Stream size                 : 6.35 MiB (0%)
Title                       : English
Language                    : English
Default                     : No
Forced                      : No

Text #2
ID                          : 4
Format                      : PGS
Muxing mode                 : zlib
Codec ID                    : S_HDMV/PGS
Codec ID/Info               : Picture based subtitle format used on BDs/HD-DVDs
Duration                    : 1 h 38 min
Bit rate                    : 7 927 b/s
Count of elements           : 2244
Stream size                 : 5.59 MiB (0%)
Title                       : Turkish
Language                    : Turkish
Default                     : Yes
Forced                      : No

[Image: vlcsnap-error230-jpg-f5668b268be091ece08...e08c12.jpg]

[Image: vlcsnap-error406-jpg-9b0f4b24a48b07f07af...e03430.jpg]

[Image: tdown.png]

For Only Vip Members

Ouija Origin of Evil (2016) Bluray Remux 1080p AVC DTS-HD MA 5.1 VIP
Reply


Possibly Related Threads…
Thread Author Replies Views Last Post
  See No Evil 1-2 (2006-2014) Bluray Remux 1080p AVC DTS-HD MA 7.1 admin 0 817 08-23-2019, 02:18 PM
Last Post: admin
  Extremely Wicked Shockingly Evil and Vile (2019) Bluray Remux 1080p AVC DTS-HRA 5.1 admin 0 895 08-19-2019, 03:59 PM
Last Post: admin
  Deliver Us from Evil (2014) Bluray Remux 1080p TR EN AVC DTS-HD MA 5.1 admin 0 1,066 06-20-2019, 11:33 AM
Last Post: admin
  Hitler The Rise of Evil (2003) Bluray Remux 1080p MPEG DTS-HD MA 5.1 admin 0 928 06-17-2019, 04:48 PM
Last Post: admin
  The Evil That Men Do (1984) Bluray Remux 1080p AVC DTS 2.0 admin 0 827 05-25-2019, 09:42 AM
Last Post: admin

Forum Jump:


Users browsing this thread: 1 Guest(s)

Powered By MyBB
Theme By Audentio Design
Updated By iAndrew | 2018