Thread Rating:
  • 0 Vote(s) - 0 Average
  • 1
  • 2
  • 3
  • 4
  • 5

[-]
Tags
bluray season quadrilogy 2015 810p x264 open prodji dts 2006

  Open Season Quadrilogy (2006-2015) BluRay 810p DTS x264-PRoDJi
#1
Open Season Quadrilogy (2006-2015) BluRay 810p DTS x264-PRoDJi

[Image: season.4.jpg]

[Image: imdb.png]
https://www.imdb.com/title/tt1646926/
https://www.imdb.com/title/tt0400717/
https://www.imdb.com/title/tt1107365/
https://www.imdb.com/title/tt4938374/

[Image: info.png]
Format : Matroska
Format version : Version 4
File size : 4.39 GiB
Duration : 1 h 26 min
Overall bit rate : 7 291 kb/s
Encoded date : UTC 2016-03-04 12:29:24
Writing application : mkvmerge v7.8.0 ('River Man') 32bit built on Mar 27 2015 16:18:02
Writing library : libebml v1.3.1 + libmatroska v1.4.2

Video
ID : 1
Format : AVC
Format/Info : Advanced Video Codec
Format profile : [email protected]
Format settings : CABAC / 6 Ref Frames
Format settings, CABAC : Yes
Format settings, RefFrames : 6 frames
Codec ID : V_MPEG4/ISO/AVC
Duration : 1 h 26 min
Bit rate : 5 108 kb/s
Width : 1 440 pixels
Height : 784 pixels
Display aspect ratio : 1.85:1
Frame rate mode : Constant
Frame rate : 23.976 (24000/1001) FPS
Color space : YUV
Chroma subsampling : 4:2:0
Bit depth : 8 bits
Scan type : Progressive
Bits/(Pixel*Frame) : 0.189
Stream size : 3.01 GiB (69%)
Title : @5108Kbps High Profiles @L4.1
Writing library : x264 core 148 r2638 7599210
Encoding settings : cabac=1 / ref=7 / deblock=1:-1:-1 / analyse=0x3:0x113 / me=umh / subme=7 / psy=1 / psy_rd=1.00:0.00 / mixed_ref=1 / me_range=24 / chroma_me=1 / trellis=2 / 8x8dct=1 / cqm=2 / deadzone=21,11 / fast_pskip=1 / chroma_qp_offset=-5 / threads=6 / lookahead_threads=1 / sliced_threads=0 / nr=0 / decimate=0 / interlaced=0 / bluray_compat=0 / constrained_intra=0 / bframes=5 / b_pyramid=1 / b_adapt=2 / b_bias=2 / direct=3 / weightb=1 / open_gop=0 / weightp=2 / keyint=230 / keyint_min=22 / scenecut=40 / intra_refresh=0 / rc_lookahead=45 / rc=2pass / mbtree=1 / bitrate=5108 / ratetol=1.0 / qcomp=0.60 / qpmin=10 / qpmax=41 / qpstep=4 / cplxblur=20.0 / qblur=0.5 / ip_ratio=1.30 / aq=1:1.00
Language : English
Default : Yes
Forced : No

Audio #1
ID : 2
Format : DTS
Format/Info : Digital Theater Systems
Codec ID : A_DTS
Duration : 1 h 26 min
Bit rate mode : Constant
Bit rate : 1 510 kb/s
Channel(s) : 6 channels
Channel layout : C L R Ls Rs LFE
Sampling rate : 48.0 kHz
Frame rate : 93.750 FPS (512 SPF)
Bit depth : 24 bits
Compression mode : Lossy
Stream size : 931 MiB (21%)
Title : [email protected] 6 chnls
Language : English
Default : Yes
Forced : No

Audio #2
ID : 3
Format : AC-3
Format/Info : Audio Coding 3
Commercial name : Dolby Digital
Codec ID : A_AC3
Duration : 1 h 26 min
Bit rate mode : Constant
Bit rate : 640 kb/s
Channel(s) : 6 channels
Channel layout : L R C LFE Ls Rs
Sampling rate : 48.0 kHz
Frame rate : 31.250 FPS (1536 SPF)
Bit depth : 16 bits
Compression mode : Lossy
Stream size : 395 MiB (9%)
Title : [email protected] 6 chnls
Language : Turkish
Service kind : Complete Main
Default : No
Forced : No

Text #1
ID : 4
Format : PGS
Muxing mode : zlib
Codec ID : S_HDMV/PGS
Codec ID/Info : Picture based subtitle format used on BDs/HD-DVDs
Language : English
Default : Yes
Forced : No

Text #2
ID : 5
Format : PGS
Muxing mode : zlib
Codec ID : S_HDMV/PGS
Codec ID/Info : Picture based subtitle format used on BDs/HD-DVDs
Language : Turkish
Default : No
Forced : No

[Image: 83018.png]

[Image: 9133.png]

[Image: tdown.png]

For Only Vip Members
Reply


Possibly Related Threads…
Thread Author Replies Views Last Post
  Magnolia (1999) Bluray 1080p EN-TR DTS x264-PRoDJi AbrA 0 105 06-20-2020, 08:00 PM
Last Post: AbrA
  Dave (1993) BluRay 1080p EN-TR DTS 2.0 x264-PRoDJi AbrA 0 170 06-10-2020, 09:05 AM
Last Post: AbrA
  Bilal A New Breed of Hero (2015) Bluray 1080p EN-TR x264 DTS 5.1-FGT AbrA 0 235 05-08-2020, 12:41 PM
Last Post: AbrA
  Terminator Dark Fate (2019) BluRay 1080p EN-TR DDP x264-PRoDJi AbrA 0 246 04-04-2020, 03:32 PM
Last Post: AbrA
  Scrooged (1988) BluRay 1080p EN-TR DTS 5.1 x264-PRoDJi AbrA 0 231 04-04-2020, 02:22 PM
Last Post: AbrA

Forum Jump:


Users browsing this thread: 1 Guest(s)

Powered By MyBB
Theme By Audentio Design
Updated By iAndrew | 2018