Thread Rating:
  • 0 Vote(s) - 0 Average
  • 1
  • 2
  • 3
  • 4
  • 5

[-]
Tags
bluray only avc 1080p 1991 hd ma 2 remux dts yesterday

  Only Yesterday (1991) Bluray Remux 1080p AVC DTS-HD MA 2.0
#1
Only Yesterday (1991) Bluray Remux 1080p AVC DTS-HD MA 2.0

[Image: tt0102587.jpg]

[Image: imdb.png]
https://www.imdb.com/title/tt0102587/

[Image: info.png]
Only Yesterday aka Omohide Poro Poro 1991 JP.mkv
Format                      : Matroska
Format version              : Version 4 / Version 2
File size                   : 28.3 GiB
Duration                    : 1 h 58 min
Overall bit rate            : 34.1 Mb/s
Movie name                  : Only Yesterday aka Omohide Poro Poro
Encoded date                : UTC 2016-12-17 14:24:58
Writing application         : mkvmerge v9.6.0 ('Slave To Your Mind') 64bit
Writing library             : libebml v1.3.4 + libmatroska v1.4.5

Video
ID                          : 1
Format                      : AVC
Format/Info                 : Advanced Video Codec
Format profile              : [email protected]
Format settings             : CABAC / 2 Ref Frames
Format settings, CABAC      : Yes
Format settings, ReFrames   : 2 frames
Format settings, GOP        : M=3, N=24
Codec ID                    : V_MPEG4/ISO/AVC
Duration                    : 1 h 58 min
Bit rate                    : 32.0 Mb/s
Width                       : 1 920 pixels
Height                      : 1 080 pixels
Display aspect ratio        : 16:9
Frame rate mode             : Constant
Frame rate                  : 23.976 (24000/1001) FPS
Color space                 : YUV
Chroma subsampling          : 4:2:0
Bit depth                   : 8 bits
Scan type                   : Progressive
Bits/(Pixel*Frame)          : 0.643
Stream size                 : 26.5 GiB (94%)
Title                       : Only Yesterday aka Omohide Poro Poro
Language                    : Japanese
Default                     : Yes
Forced                      : No

Audio
ID                          : 2
Format                      : DTS
Format/Info                 : Digital Theater Systems
Format profile              : MA / Core
Codec ID                    : A_DTS
Duration                    : 1 h 58 min
Bit rate mode               : Variable / Constant
Bit rate                    : 2 101 kb/s / 1 509 kb/s
Channel(s)                  : 2 channels
Channel positions           :  / Front: L R
Sampling rate               : 48.0 kHz
Frame rate                  : 93.750 FPS (512 SPF)
Bit depth                   : 24 bits
Compression mode            : Lossless / Lossy
Stream size                 : 1.74 GiB (6%)
Title                       : Japanese
Language                    : Japanese
Default                     : Yes
Forced                      : No

Text #1
ID                          : 3
Format                      : PGS
Muxing mode                 : zlib
Codec ID                    : S_HDMV/PGS
Codec ID/Info               : Picture based subtitle format used on BDs/HD-DVDs
Duration                    : 1 h 57 min
Bit rate                    : 10.1 kb/s
Count of elements           : 2666
Stream size                 : 8.46 MiB (0%)
Title                       : English
Language                    : English
Default                     : No
Forced                      : No

Text #2
ID                          : 4
Format                      : PGS
Muxing mode                 : zlib
Codec ID                    : S_HDMV/PGS
Codec ID/Info               : Picture based subtitle format used on BDs/HD-DVDs
Duration                    : 1 h 57 min
Bit rate                    : 11.7 kb/s
Count of elements           : 2574
Stream size                 : 9.80 MiB (0%)
Title                       : Turkish
Language                    : Turkish
Default                     : Yes
Forced                      : No

[Image: vlcsnap-error402-jpg-f550e4c8e5dca915589...3abaf6.jpg]

[Image: vlcsnap-error752-jpg-b87f91b0ac8ceec2c49...a59daa.jpg]

[Image: tdown.png]

For Only Vip Members

Only Yesterday (1991) Bluray Remux 1080p AVC DTS-HD MA 2.0 VIP
Reply


Possibly Related Threads…
Thread Author Replies Views Last Post
  Thelma And Louise (1991) Bluray Remux 1080p TR EN AVC DTS-HD MA 5.1 admin 0 384 07-30-2019, 04:58 PM
Last Post: admin
  Not Without My Daughter (1991) Bluray Remux 1080p AVC DD 2.0 admin 0 359 07-28-2019, 06:07 PM
Last Post: admin
  The Doors (1991) Bluray Remux 1080p AVC DTS-HD MA 7.1 admin 0 410 07-14-2019, 08:01 AM
Last Post: admin
  The Perfect Weapon (1991) Bluray Remux 1080p AVC DTS 2.0 admin 0 406 07-08-2019, 06:07 PM
Last Post: admin
  Samurai Cop (1991) Bluray Remux 1080p AVC DD 2.0 admin 0 414 06-30-2019, 01:53 PM
Last Post: admin

Forum Jump:


Users browsing this thread: 1 Guest(s)

Powered By MyBB
Theme By Audentio Design
Updated By iAndrew | 2018