Thread Rating:
  • 0 Vote(s) - 0 Average
  • 1
  • 2
  • 3
  • 4
  • 5

[-]
Tags
bluray only avc 1080p 2017 the hd ma 1 remux brave dts 5

  Only the Brave (2017) Bluray Remux 1080p AVC DTS-HD MA 5.1
#1
Only the Brave (2017) Bluray Remux 1080p AVC DTS-HD MA 5.1

[Image: only.brave.jpg]

[Image: imdb.png]
https://www.imdb.com/title/tt3829920/

[Image: info.png]
Only the Brave 2017 EN.mkv
Format                      : Matroska
Format version              : Version 4 / Version 2
File size                   : 25.4 GiB
Duration                    : 2 h 14 min
Overall bit rate mode       : Variable
Overall bit rate            : 27.2 Mb/s
Movie name                  : Only the Brave
Encoded date                : UTC 2018-02-01 18:42:07
Writing application         : mkvmerge v20.0.0 ('I Am The Sun') 64-bit
Writing library             : libebml v1.3.5 + libmatroska v1.4.8

Video
ID                          : 1
Format                      : AVC
Format/Info                 : Advanced Video Codec
Format profile              : [email protected]
Format settings             : CABAC / 2 Ref Frames
Format settings, CABAC      : Yes
Format settings, ReFrames   : 2 frames
Format settings, GOP        : M=1, N=10
Codec ID                    : V_MPEG4/ISO/AVC
Duration                    : 2 h 14 min
Bit rate mode               : Variable
Bit rate                    : 24.9 Mb/s
Width                       : 1 920 pixels
Height                      : 1 080 pixels
Display aspect ratio        : 16:9
Frame rate mode             : Constant
Frame rate                  : 23.976 (24000/1001) FPS
Color space                 : YUV
Chroma subsampling          : 4:2:0
Bit depth                   : 8 bits
Scan type                   : Progressive
Bits/(Pixel*Frame)          : 0.500
Stream size                 : 23.3 GiB (92%)
Title                       : Only the Brave
Language                    : English
Default                     : Yes
Forced                      : No

Audio
ID                          : 2
Format                      : DTS
Format/Info                 : Digital Theater Systems
Format profile              : MA / Core
Codec ID                    : A_DTS
Duration                    : 2 h 14 min
Bit rate mode               : Variable / Constant
Bit rate                    : 2 253 kb/s / 1 509 kb/s
Channel(s)                  : 6 channels
Channel positions           : Front: L C R, Side: L R, LFE
Sampling rate               : 48.0 kHz
Frame rate                  : 93.750 FPS (512 SPF)
Bit depth                   : 16 bits
Compression mode            : Lossless / Lossy
Stream size                 : 2.11 GiB (8%)
Title                       : English
Language                    : English
Default                     : Yes
Forced                      : No

Text #1
ID                          : 3
Format                      : PGS
Muxing mode                 : zlib
Codec ID                    : S_HDMV/PGS
Codec ID/Info               : Picture based subtitle format used on BDs/HD-DVDs
Duration                    : 2 h 3 min
Bit rate                    : 49.3 kb/s
Count of elements           : 3794
Stream size                 : 43.7 MiB (0%)
Title                       : English
Language                    : English
Default                     : No
Forced                      : No

Text #2
ID                          : 4
Format                      : PGS
Muxing mode                 : zlib
Codec ID                    : S_HDMV/PGS
Codec ID/Info               : Picture based subtitle format used on BDs/HD-DVDs
Duration                    : 2 h 8 min
Bit rate                    : 34.9 kb/s
Count of elements           : 3020
Stream size                 : 32.1 MiB (0%)
Title                       : Turkish
Language                    : Turkish
Default                     : Yes
Forced                      : No

[Image: 46946854845_ee0be6ae45_b.jpg]

[Image: 47073635094_caa7a0f37f_b.jpg]

[Image: tdown.png]

For Only Vip Members

Only the Brave (2017) Bluray Remux 1080p AVC DTS-HD MA 5.1 VIP
Reply


Possibly Related Threads…
Thread Author Replies Views Last Post
  The Brave One (2007) Bluray Remux 1080p VC-1 TrueHD 5.1 admin 0 834 08-24-2019, 11:54 AM
Last Post: admin
  Home of the Brave (2006) Bluray Remux TR-EN 1080p AVC DTS-HD MA 5.1 admin 0 1,228 03-27-2019, 04:38 PM
Last Post: admin

Forum Jump:


Users browsing this thread: 1 Guest(s)

Powered By MyBB
Theme By Audentio Design
Updated By iAndrew | 2018