Thread Rating:
  • 0 Vote(s) - 0 Average
  • 1
  • 2
  • 3
  • 4
  • 5

[-]
Tags
bluray avc 1080p hd ma 1 2 remux 2014 yilda bir dts 5 on insaat

  On Yilda Bir Insaat 2 (2014) Bluray Remux 1080p AVC DTS-HD MA 5.1
#1
On Yilda Bir Insaat 2 (2014) Bluray Remux 1080p AVC DTS-HD MA 5.1

[Image: tt41417881.jpg]

[Image: imdb.png]
https://www.imdb.com/title/tt4141788/

[Image: info.png]
On Yilda Bir Insaat 2 2014 TR.mkv
Format                      : Matroska
Format version              : Version 4 / Version 2
File size                   : 18.4 GiB
Duration                    : 1 h 51 min
Overall bit rate mode       : Variable
Overall bit rate            : 23.6 Mb/s
Movie name                  : On Yilda Bir: Insaat 2
Encoded date                : UTC 2015-12-15 22:32:50
Writing application         : mkvmerge v8.3.0 ('Over the Horizon') 64bit
Writing library             : libebml v1.3.1 + libmatroska v1.4.2

Video
ID                          : 1
Format                      : AVC
Format/Info                 : Advanced Video Codec
Format profile              : [email protected]
Format settings, CABAC      : Yes
Format settings, ReFrames   : 4 frames
Format settings, GOP        : M=3, N=25
Codec ID                    : V_MPEG4/ISO/AVC
Duration                    : 1 h 51 min
Bit rate mode               : Variable
Bit rate                    : 19.5 Mb/s
Maximum bit rate            : 30.0 Mb/s
Width                       : 1 920 pixels
Height                      : 1 080 pixels
Display aspect ratio        : 16:9
Frame rate mode             : Variable
Frame rate                  : 50.000 FPS
Original frame rate         : 25.000 FPS
Standard                    : PAL
Color space                 : YUV
Chroma subsampling          : 4:2:0
Bit depth                   : 8 bits
Scan type                   : Interlaced
Scan type, store method     : Separated fields
Scan order                  : Top Field First
Bits/(Pixel*Frame)          : 0.188
Stream size                 : 15.2 GiB (83%)
Title                       : On Yilda Bir: Insaat 2
Language                    : Turkish
Default                     : No
Forced                      : No
Color range                 : Limited
Color primaries             : BT.709
Transfer characteristics    : BT.709
Matrix coefficients         : BT.709

Audio
ID                          : 2
Format                      : DTS
Format/Info                 : Digital Theater Systems
Format profile              : MA / Core
Mode                        : 16
Format settings, Endianness : Big
Codec ID                    : A_DTS
Duration                    : 1 h 51 min
Bit rate mode               : Variable / Constant
Bit rate                    : 4 071 kb/s / 1 509 kb/s
Channel(s)                  : 6 channels
Channel positions           : Front: L C R, Side: L R, LFE
Sampling rate               : 48.0 kHz
Frame rate                  : 93.750 FPS (512 spf)
Bit depth                   : 24 bits
Compression mode            : Lossless / Lossy
Stream size                 : 3.18 GiB (17%)
Title                       : Turkish
Language                    : Turkish
Default                     : Yes
Forced                      : No

[Image: vlcsnap-error337-jpg-cba77d623dd44fc2bef...e33851.jpg]

[Image: vlcsnap-error728-jpg-8ef7fc385a198b32604...ed0150.jpg]

[Image: tdown.png]

For Only Vip Members

On Yilda Bir Insaat 2 (2014) Bluray Remux 1080p AVC DTS-HD MA 5.1 VIP
Reply


Forum Jump:


Users browsing this thread: 1 Guest(s)

Powered By MyBB
Theme By Audentio Design
Updated By iAndrew | 2018