Thread Rating:
  • 0 Vote(s) - 0 Average
  • 1
  • 2
  • 3
  • 4
  • 5

[-]
Tags
bluray 1080p en 2007 hd ma 1 vc remux next dts 5 tr

 
  Next (2007) Bluray Remux 1080p TR-EN VC-1 DTS-HD MA 5.1
#1
Next (2007) Bluray Remux 1080p TR-EN VC-1 DTS-HD MA 5.1

[Image: tt0435705.jpg]

[Image: imdb.png]
https://www.imdb.com/title/tt0435705/

[Image: info.png]
Next 2007 TR EN.mkv
Format                      : Matroska
Format version              : Version 4 / Version 2
File size                   : 17.3 GiB
Duration                    : 1 h 35 min
Overall bit rate            : 25.9 Mb/s
Encoded date                : UTC 2013-06-12 08:08:03
Writing application         : mkvmerge v6.2.0 ('Promised Land') built on Apr 28 2013 12:22:01
Writing library             : libebml v1.3.0 + libmatroska v1.4.0

Video
ID                          : 1
Format                      : VC-1
Format profile              : [email protected]
Codec ID                    : V_MS/VFW/FOURCC / WVC1
Codec ID/Hint               : Microsoft
Duration                    : 1 h 35 min
Bit rate                    : 22.7 Mb/s
Width                       : 1 920 pixels
Height                      : 1 080 pixels
Display aspect ratio        : 16:9
Frame rate mode             : Constant
Frame rate                  : 23.976 (24000/1001) FPS
Color space                 : YUV
Chroma subsampling          : 4:2:0
Bit depth                   : 8 bits
Scan type                   : Progressive
Compression mode            : Lossy
Bits/(Pixel*Frame)          : 0.457
Stream size                 : 15.2 GiB (88%)
Title                       : Next
Language                    : English
Default                     : Yes
Forced                      : No

Audio #1
ID                          : 2
Format                      : DTS
Format/Info                 : Digital Theater Systems
Format profile              : HRA / Core
Mode                        : 16
Format settings, Endianness : Big
Codec ID                    : A_DTS
Duration                    : 1 h 35 min
Bit rate mode               : Constant
Bit rate                    : 2 046 kb/s / 1 509 kb/s
Channel(s)                  : 6 channels
Channel positions           : Front: L C R, Side: L R, LFE
Sampling rate               : 48.0 kHz
Frame rate                  : 93.750 FPS (512 spf)
Bit depth                   : 16 bits / 24 bits
Compression mode            : Lossy
Stream size                 : 1.37 GiB (8%)
Title                       : English
Language                    : English
Default                     : Yes
Forced                      : No

Audio #2
ID                          : 3
Format                      : AC-3
Format/Info                 : Audio Coding 3
Format settings, Endianness : Big
Codec ID                    : A_AC3
Duration                    : 1 h 35 min
Bit rate mode               : Constant
Bit rate                    : 640 kb/s
Channel(s)                  : 6 channels
Channel positions           : Front: L C R, Side: L R, LFE
Sampling rate               : 48.0 kHz
Frame rate                  : 31.250 FPS (1536 spf)
Bit depth                   : 16 bits
Compression mode            : Lossy
Stream size                 : 438 MiB (2%)
Title                       : Turkish
Language                    : Turkish
Service kind                : Complete Main
Default                     : No
Forced                      : No

Text #1
ID                          : 4
Format                      : PGS
Muxing mode                 : zlib
Codec ID                    : S_HDMV/PGS
Codec ID/Info               : Picture based subtitle format used on BDs/HD-DVDs
Title                       : Turkish
Language                    : Turkish
Default                     : Yes
Forced                      : No

Text #2
ID                          : 5
Format                      : PGS
Muxing mode                 : zlib
Codec ID                    : S_HDMV/PGS
Codec ID/Info               : Picture based subtitle format used on BDs/HD-DVDs
Title                       : English
Language                    : English
Default                     : No
Forced                      : No

[Image: vlcsnap-error538-jpg-ce1cde147ce4db20719...4ee62a.jpg]

[Image: vlcsnap-error951-jpg-00eaf64a78ed36a8b42...ac3fc0.jpg]

[Image: tdown.png]

For Only Vip Members

Next (2007) Bluray Remux 1080p TR-EN VC-1 DTS-HD MA 5.1 VIP
Reply


Possibly Related Threads…
Thread Author Replies Views Last Post
  Om Shanti Om 2007 Bluray Remux 1080p VC-1 TrueHD 5 1- RK KAiJu 0 16 11-09-2021, 07:10 AM
Last Post: KAiJu
  Hot Rod 2007 1080p Remux VC-1 TrueHD 5 1-playBD KAiJu 0 42 09-12-2021, 12:53 PM
Last Post: KAiJu
  The Grand 2007 1080p Blu-ray Remux AVC DTS-HD MA 5.1 - KRaLiMaRKo KAiJu 0 53 09-09-2021, 06:33 AM
Last Post: KAiJu
  Ghost Rider (2007) Bluray REMUX 1080p AVC DD 5.1-HUS AbrA 0 60 08-03-2021, 10:17 AM
Last Post: AbrA
  IMAX-Dinosaurs Giants of Patagonia (2007) Bluray REMUX 1080p MVC DTS-HD MA 5.1-HUS AbrA 0 85 07-08-2021, 11:35 AM
Last Post: AbrA

Forum Jump:


Users browsing this thread: 1 Guest(s)

Powered By MyBB
RSS RSS Syndication
Updated By iAndrew | 2021