Thread Rating:
  • 0 Vote(s) - 0 Average
  • 1
  • 2
  • 3
  • 4
  • 5

[-]
Tags
bluray avc 1080p network hd ma 1 remux dts 1976

  Network (1976) Bluray Remux 1080p AVC DTS-HD MA 1.0
#1
Network (1976) Bluray Remux 1080p AVC DTS-HD MA 1.0

[Image: tt0074958.jpg]

[Image: imdb.png]
https://www.imdb.com/title/tt0074958/

[Image: info.png]
Network 1976 EN.mkv
Format                      : Matroska
Format version              : Version 4 / Version 2
File size                   : 16.2 GiB
Duration                    : 2 h 1 min
Overall bit rate mode       : Variable
Overall bit rate            : 19.1 Mb/s
Movie name                  : Network
Encoded date                : UTC 2017-10-13 17:21:24
Writing application         : mkvmerge v16.0.0 ('Protest') 64-bit
Writing library             : libebml v1.3.5 + libmatroska v1.4.8

Video
ID                          : 1
Format                      : AVC
Format/Info                 : Advanced Video Codec
Format profile              : [email protected]
Format settings             : CABAC / 2 Ref Frames
Format settings, CABAC      : Yes
Format settings, ReFrames   : 2 frames
Format settings, GOP        : M=1, N=10
Codec ID                    : V_MPEG4/ISO/AVC
Duration                    : 2 h 1 min
Bit rate mode               : Variable
Bit rate                    : 18.0 Mb/s
Width                       : 1 920 pixels
Height                      : 1 080 pixels
Display aspect ratio        : 16:9
Frame rate mode             : Constant
Frame rate                  : 23.976 (24000/1001) FPS
Color space                 : YUV
Chroma subsampling          : 4:2:0
Bit depth                   : 8 bits
Scan type                   : Progressive
Bits/(Pixel*Frame)          : 0.361
Stream size                 : 15.2 GiB (94%)
Title                       : Network
Language                    : English
Default                     : Yes
Forced                      : No

Audio
ID                          : 2
Format                      : DTS
Format/Info                 : Digital Theater Systems
Format profile              : MA / Core
Codec ID                    : A_DTS
Duration                    : 2 h 1 min
Bit rate mode               : Variable / Constant
Bit rate                    : 1 108 kb/s / 768 kb/s
Channel(s)                  : 1 channel
Channel positions           : Front: C
Sampling rate               : 48.0 kHz
Frame rate                  : 93.750 FPS (512 SPF)
Bit depth                   : 24 bits
Compression mode            : Lossless / Lossy
Stream size                 : 961 MiB (6%)
Title                       : English
Language                    : English
Default                     : Yes
Forced                      : No

Text #1
ID                          : 3
Format                      : PGS
Muxing mode                 : zlib
Codec ID                    : S_HDMV/PGS
Codec ID/Info               : Picture based subtitle format used on BDs/HD-DVDs
Duration                    : 2 h 1 min
Bit rate                    : 56.5 kb/s
Count of elements           : 3736
Stream size                 : 48.9 MiB (0%)
Title                       : English
Language                    : English
Default                     : No
Forced                      : No

Text #2
ID                          : 4
Format                      : PGS
Muxing mode                 : zlib
Codec ID                    : S_HDMV/PGS
Codec ID/Info               : Picture based subtitle format used on BDs/HD-DVDs
Duration                    : 1 h 59 min
Bit rate                    : 45.9 kb/s
Count of elements           : 3532
Stream size                 : 39.1 MiB (0%)
Title                       : Turkish
Language                    : Turkish
Default                     : Yes
Forced                      : No

[Image: 46951691675_cd77045cc7_b.jpg]

[Image: 40901416153_71ed8b5d25_b.jpg]

[Image: tdown.png]

For Only Vip Members

Network (1976) Bluray Remux 1080p AVC DTS-HD MA 1.0 VIP
Reply


Possibly Related Threads…
Thread Author Replies Views Last Post
  The Social Network (2010) Bluray Remux 1080p TR EN AVC DTS 5.1 admin 0 477 09-02-2019, 12:54 PM
Last Post: admin
  Taxi Driver (1976) Bluray Remux 1080p AVC DTS-HD MA 5.1 admin 0 336 07-27-2019, 11:18 AM
Last Post: admin
  All the Presidents Men (1976) Bluray Remux 1080p AVC DTS 2.0 admin 0 360 07-06-2019, 05:14 PM
Last Post: admin
  A Star Is Born (1976) Bluray Remux 1080p AVC DTS-HD MA 5.1 admin 0 474 07-03-2019, 06:29 PM
Last Post: admin
  The Eagle Has Landed (1976) Bluray Remux 1080p AVC DTS-HD MA 5.1 admin 0 525 06-15-2019, 06:47 PM
Last Post: admin

Forum Jump:


Users browsing this thread: 1 Guest(s)

Powered By MyBB
Theme By Audentio Design
Updated By iAndrew | 2018