Thread Rating:
  • 0 Vote(s) - 0 Average
  • 1
  • 2
  • 3
  • 4
  • 5

[-]
Tags
naked bluray avc 1080p 1991 hd ma lunch 2 remux dts

  Naked Lunch (1991) Bluray Remux 1080p AVC DTS-HD MA 2.0
#1
Naked Lunch (1991) Bluray Remux 1080p AVC DTS-HD MA 2.0

[Image: tt0102511.jpg]

[Image: imdb.png]
https://www.imdb.com/title/tt0102511/

[Image: info.png]
Naked Lunch 1991 EN.mkv
Format                      : Matroska
Format version              : Version 4 / Version 2
File size                   : 28.6 GiB
Duration                    : 1 h 55 min
Overall bit rate mode       : Variable
Overall bit rate            : 35.4 Mb/s
Movie name                  : Naked Lunch
Encoded date                : UTC 2017-10-13 17:11:18
Writing application         : mkvmerge v16.0.0 ('Protest') 64-bit
Writing library             : libebml v1.3.5 + libmatroska v1.4.8

Video
ID                          : 1
Format                      : AVC
Format/Info                 : Advanced Video Codec
Format profile              : [email protected]
Format settings             : CABAC / 4 Ref Frames
Format settings, CABAC      : Yes
Format settings, ReFrames   : 4 frames
Codec ID                    : V_MPEG4/ISO/AVC
Duration                    : 1 h 55 min
Bit rate mode               : Variable
Bit rate                    : 33.3 Mb/s
Maximum bit rate            : 37.0 Mb/s
Width                       : 1 920 pixels
Height                      : 1 080 pixels
Display aspect ratio        : 16:9
Frame rate mode             : Constant
Frame rate                  : 23.976 (24000/1001) FPS
Color space                 : YUV
Chroma subsampling          : 4:2:0
Bit depth                   : 8 bits
Scan type                   : Progressive
Bits/(Pixel*Frame)          : 0.669
Stream size                 : 26.9 GiB (94%)
Title                       : Naked Lunch
Language                    : English
Default                     : Yes
Forced                      : No

Audio
ID                          : 2
Format                      : DTS
Format/Info                 : Digital Theater Systems
Format profile              : MA / Core
Codec ID                    : A_DTS
Duration                    : 1 h 55 min
Bit rate mode               : Variable / Constant
Bit rate                    : 2 048 kb/s / 1 509 kb/s
Channel(s)                  : 2 channels
Channel positions           :  / Front: L R
Sampling rate               : 48.0 kHz
Frame rate                  : 93.750 FPS (512 SPF)
Bit depth                   : 24 bits
Compression mode            : Lossless / Lossy
Stream size                 : 1.67 GiB (6%)
Title                       : English
Language                    : English
Default                     : Yes
Forced                      : No

Text #1
ID                          : 3
Format                      : PGS
Muxing mode                 : zlib
Codec ID                    : S_HDMV/PGS
Codec ID/Info               : Picture based subtitle format used on BDs/HD-DVDs
Duration                    : 1 h 48 min
Bit rate                    : 43.9 kb/s
Count of elements           : 2737
Stream size                 : 34.1 MiB (0%)
Title                       : English
Language                    : English
Default                     : No
Forced                      : No

Text #2
ID                          : 4
Format                      : PGS
Muxing mode                 : zlib
Codec ID                    : S_HDMV/PGS
Codec ID/Info               : Picture based subtitle format used on BDs/HD-DVDs
Duration                    : 1 h 48 min
Bit rate                    : 26.3 kb/s
Count of elements           : 2390
Stream size                 : 20.4 MiB (0%)
Title                       : Turkish
Language                    : Turkish
Default                     : Yes
Forced                      : No

[Image: 47848986161_5d3b7765e7_b.jpg]

[Image: 32904950807_074178916f_b.jpg]

[Image: tdown.png]

For Only Vip Members

Naked Lunch (1991) Bluray Remux 1080p AVC DTS-HD MA 2.0 VIP
Reply


Possibly Related Threads…
Thread Author Replies Views Last Post
  Naked Weapon (2002) Bluray Remux 1080p AVC TrueHD 7.1 admin 0 722 08-23-2019, 09:21 AM
Last Post: admin
  Thelma And Louise (1991) Bluray Remux 1080p TR EN AVC DTS-HD MA 5.1 admin 0 802 07-30-2019, 04:58 PM
Last Post: admin
  Not Without My Daughter (1991) Bluray Remux 1080p AVC DD 2.0 admin 0 736 07-28-2019, 06:07 PM
Last Post: admin
  The Doors (1991) Bluray Remux 1080p AVC DTS-HD MA 7.1 admin 0 816 07-14-2019, 08:01 AM
Last Post: admin
  The Perfect Weapon (1991) Bluray Remux 1080p AVC DTS 2.0 admin 0 742 07-08-2019, 06:07 PM
Last Post: admin

Forum Jump:


Users browsing this thread: 1 Guest(s)

Powered By MyBB
Theme By Audentio Design
Updated By iAndrew | 2018