Thread Rating:
  • 0 Vote(s) - 0 Average
  • 1
  • 2
  • 3
  • 4
  • 5

[-]
Tags
bluray 1989 my avc left 1080p 1 remux foot dts 5

  My Left Foot (1989) Bluray Remux 1080p AVC DTS 5.1
#1
My Left Foot (1989) Bluray Remux 1080p AVC DTS 5.1

[Image: tt0097937.jpg]

[Image: imdb.png]
https://www.imdb.com/title/tt0097937/

[Image: info.png]
My Left Foot 1989 EN.mkv
Format                      : Matroska
Format version              : Version 4 / Version 2
File size                   : 19.3 GiB
Duration                    : 1 h 43 min
Overall bit rate mode       : Variable
Overall bit rate            : 26.7 Mb/s
Movie name                  : My Left Foot
Encoded date                : UTC 2015-08-21 16:38:32
Writing application         : mkvmerge v8.3.0 ('Over the Horizon') 64bit
Writing library             : libebml v1.3.1 + libmatroska v1.4.2

Video
ID                          : 1
Format                      : AVC
Format/Info                 : Advanced Video Codec
Format profile              : [email protected]
Format settings             : CABAC / 4 Ref Frames
Format settings, CABAC      : Yes
Format settings, ReFrames   : 4 frames
Codec ID                    : V_MPEG4/ISO/AVC
Duration                    : 1 h 43 min
Bit rate mode               : Variable
Bit rate                    : 23.0 Mb/s
Maximum bit rate            : 35.0 Mb/s
Width                       : 1 920 pixels
Height                      : 1 080 pixels
Display aspect ratio        : 16:9
Frame rate mode             : Constant
Frame rate                  : 23.976 (24000/1001) FPS
Standard                    : NTSC
Color space                 : YUV
Chroma subsampling          : 4:2:0
Bit depth                   : 8 bits
Scan type                   : Progressive
Bits/(Pixel*Frame)          : 0.463
Stream size                 : 16.6 GiB (86%)
Title                       : My Left Foot
Language                    : English
Default                     : Yes
Forced                      : No
Color range                 : Limited
Color primaries             : BT.709
Transfer characteristics    : BT.709
Matrix coefficients         : BT.709

Audio
ID                          : 2
Format                      : DTS
Format/Info                 : Digital Theater Systems
Format profile              : MA / Core
Codec ID                    : A_DTS
Duration                    : 1 h 43 min
Bit rate mode               : Variable / Constant
Bit rate                    : 3 674 kb/s / 1 509 kb/s
Channel(s)                  : 6 channels
Channel positions           : Front: L C R, Side: L R, LFE
Sampling rate               : 48.0 kHz
Frame rate                  : 93.750 FPS (512 SPF)
Bit depth                   : 24 bits
Compression mode            : Lossless / Lossy
Stream size                 : 2.65 GiB (14%)
Title                       : English
Language                    : English
Default                     : Yes
Forced                      : No

Text #1
ID                          : 3
Format                      : PGS
Muxing mode                 : zlib
Codec ID                    : S_HDMV/PGS
Codec ID/Info               : Picture based subtitle format used on BDs/HD-DVDs
Duration                    : 1 h 40 min
Bit rate                    : 11.8 kb/s
Count of elements           : 2902
Stream size                 : 8.41 MiB (0%)
Title                       : English
Language                    : English
Default                     : No
Forced                      : No

Text #2
ID                          : 4
Format                      : PGS
Muxing mode                 : zlib
Codec ID                    : S_HDMV/PGS
Codec ID/Info               : Picture based subtitle format used on BDs/HD-DVDs
Duration                    : 1 h 38 min
Bit rate                    : 8 103 b/s
Count of elements           : 1702
Stream size                 : 5.73 MiB (0%)
Title                       : Turkish
Language                    : Turkish
Default                     : Yes
Forced                      : No

[Image: 47090911234_0dda14757b_b.jpg]

[Image: 34003188278_bdd650f31e_b.jpg]

[Image: tdown.png]

For Only Vip Members

My Left Foot (1989) Bluray Remux 1080p AVC DTS 5.1 VIP
Reply


Possibly Related Threads…
Thread Author Replies Views Last Post
  Born on the Fourth of July (1989) Bluray Remux 1080p VC-1 DTS-HD MA 5.1 admin 0 467 08-18-2019, 07:46 PM
Last Post: admin
  Blind Fury (1989) Bluray Remux 1080p AVC DTS-HD MA 2.0 admin 0 412 08-15-2019, 07:33 AM
Last Post: admin
  Shocker (1989) Bluray Remux 1080p AVC DTS-HD MA 5.1 admin 0 431 07-22-2019, 12:38 PM
Last Post: admin
  K-9 (1989-2002) Bluray Remux 1080p AVC DTS-HD MA 2.0 admin 0 426 07-16-2019, 01:14 PM
Last Post: admin
  The War of the Roses (1989) Bluray Remux 1080p AVC DTS-HD MA 5.1 admin 0 482 07-14-2019, 08:33 AM
Last Post: admin

Forum Jump:


Users browsing this thread: 1 Guest(s)

Powered By MyBB
Theme By Audentio Design
Updated By iAndrew | 2018