Thread Rating:
  • 0 Vote(s) - 0 Average
  • 1
  • 2
  • 3
  • 4
  • 5

[-]
Tags
lady bluray 1964 my avc 1080p 7 hd ma 1 remux dts fair

  My Fair Lady (1964) Bluray Remux 1080p AVC DTS-HD MA 7.1
#1
My Fair Lady (1964) Bluray Remux 1080p AVC DTS-HD MA 7.1

[Image: tt0058385.jpg]

[Image: imdb.png]
https://www.imdb.com/title/tt0058385/

[Image: info.png]
My Fair Lady 1964 EN.mkv
Format                      : Matroska
Format version              : Version 4 / Version 2
File size                   : 34.0 GiB
Duration                    : 2 h 52 min
Overall bit rate mode       : Variable
Overall bit rate            : 28.1 Mb/s
Encoded date                : UTC 2014-07-29 01:06:38
Writing application         : mkvmerge v7.1.0 ('Good Love') 64bit built on Jul 27 2014 13:06:55
Writing library             : libebml v1.3.0 + libmatroska v1.4.1

Video
ID                          : 1
Format                      : AVC
Format/Info                 : Advanced Video Codec
Format profile              : [email protected]
Format settings             : CABAC / 4 Ref Frames
Format settings, CABAC      : Yes
Format settings, ReFrames   : 4 frames
Codec ID                    : V_MPEG4/ISO/AVC
Duration                    : 2 h 52 min
Bit rate mode               : Variable
Bit rate                    : 23.0 Mb/s
Maximum bit rate            : 32.0 Mb/s
Width                       : 1 920 pixels
Height                      : 1 080 pixels
Display aspect ratio        : 16:9
Frame rate mode             : Constant
Frame rate                  : 23.976 (24000/1001) FPS
Standard                    : NTSC
Color space                 : YUV
Chroma subsampling          : 4:2:0
Bit depth                   : 8 bits
Scan type                   : Progressive
Bits/(Pixel*Frame)          : 0.463
Stream size                 : 27.8 GiB (82%)
Title                       : My Fair Lady
Language                    : English
Default                     : Yes
Forced                      : No
Color range                 : Limited
Color primaries             : BT.709
Transfer characteristics    : BT.709
Matrix coefficients         : BT.709

Audio
ID                          : 2
Format                      : DTS
Format/Info                 : Digital Theater Systems
Format profile              : MA / Core
Codec ID                    : A_DTS
Duration                    : 2 h 52 min
Bit rate mode               : Variable / Constant
Bit rate                    : 5 077 kb/s / 1 509 kb/s
Channel(s)                  : 8 channels / 6 channels
Channel positions           : Front: L C R, Side: L R, Back: L R, LFE / Front: L C R, Side: L R, LFE
Sampling rate               : 48.0 kHz
Frame rate                  : 93.750 FPS (512 SPF)
Bit depth                   : 24 bits
Compression mode            : Lossless / Lossy
Stream size                 : 6.13 GiB (18%)
Title                       : English
Language                    : English
Default                     : Yes
Forced                      : No

Text #1
ID                          : 3
Format                      : PGS
Muxing mode                 : zlib
Codec ID                    : S_HDMV/PGS
Codec ID/Info               : Picture based subtitle format used on BDs/HD-DVDs
Duration                    : 2 h 47 min
Bit rate                    : 20.5 kb/s
Count of elements           : 5466
Stream size                 : 24.6 MiB (0%)
Title                       : English
Language                    : English
Default                     : No
Forced                      : No

Text #2
ID                          : 4
Format                      : PGS
Muxing mode                 : zlib
Codec ID                    : S_HDMV/PGS
Codec ID/Info               : Picture based subtitle format used on BDs/HD-DVDs
Duration                    : 2 h 46 min
Bit rate                    : 19.6 kb/s
Count of elements           : 4484
Stream size                 : 23.4 MiB (0%)
Title                       : Turkish
Language                    : Turkish
Default                     : Yes
Forced                      : No

[Image: NKhZ7V.jpg]

[Image: eEYuwn.jpg]

[Image: tdown.png]

For Only Vip Members

My Fair Lady (1964) Bluray Remux 1080p AVC DTS-HD MA 7.1 VIP
Reply


Possibly Related Threads…
Thread Author Replies Views Last Post
  Lady Macbeth (2016) Bluray Remux 1080p AVC DTS-HD MA 5.1 admin 0 359 07-30-2019, 10:50 AM
Last Post: admin
  Lady in the Water (2006) Bluray Remux 1080p VC-1 DD 5.1 admin 0 447 06-23-2019, 01:36 PM
Last Post: admin
  Lady Bloodfight (2016) Bluray Remux 1080p AVC DTS-HD MA 5.1 admin 0 378 06-23-2019, 12:42 PM
Last Post: admin
  Alexis Zorbas (1964) Bluray Remux 1080p AVC DTS-HD MA 1.0 admin 0 420 06-17-2019, 12:31 PM
Last Post: admin
  The Lady Vanishes (1938) Bluray Remux 1080p AVC DD 1.0 admin 0 421 06-08-2019, 08:15 AM
Last Post: admin

Forum Jump:


Users browsing this thread: 1 Guest(s)

Powered By MyBB
Theme By Audentio Design
Updated By iAndrew | 2018