Thread Rating:
  • 0 Vote(s) - 0 Average
  • 1
  • 2
  • 3
  • 4
  • 5

[-]
Tags
bluray express murder avc 1080p 2017 7 the orient hd ma 1 remux dts on

  Murder on the Orient Express (2017) Bluray Remux 1080p AVC DTS-HD MA 7.1
#1
Murder on the Orient Express (2017) Bluray Remux 1080p AVC DTS-HD MA 7.1

[Image: tt3402236.jpg]

[Image: imdb.png]
https://www.imdb.com/title/tt3402236/

[Image: info.png]
Murder on the Orient Express 2017 TR EN.mkv
Format                      : Matroska
Format version              : Version 4 / Version 2
File size                   : 22.5 GiB
Duration                    : 1 h 53 min
Overall bit rate mode       : Variable
Overall bit rate            : 28.2 Mb/s
Movie name                  : Murder on the Orient Express
Encoded date                : UTC 2018-02-15 18:52:24
Writing application         : mkvmerge v20.0.0 ('I Am The Sun') 64-bit
Writing library             : libebml v1.3.5 + libmatroska v1.4.8

Video
ID                          : 1
Format                      : AVC
Format/Info                 : Advanced Video Codec
Format profile              : [email protected]
Format settings             : CABAC / 4 Ref Frames
Format settings, CABAC      : Yes
Format settings, ReFrames   : 4 frames
Codec ID                    : V_MPEG4/ISO/AVC
Duration                    : 1 h 53 min
Bit rate mode               : Variable
Bit rate                    : 23.7 Mb/s
Maximum bit rate            : 29.5 Mb/s
Width                       : 1 920 pixels
Height                      : 1 080 pixels
Display aspect ratio        : 16:9
Frame rate mode             : Constant
Frame rate                  : 23.976 (24000/1001) FPS
Color space                 : YUV
Chroma subsampling          : 4:2:0
Bit depth                   : 8 bits
Scan type                   : Progressive
Bits/(Pixel*Frame)          : 0.477
Stream size                 : 18.9 GiB (84%)
Title                       : Murder on the Orient Express
Language                    : English
Default                     : Yes
Forced                      : No

Audio #1
ID                          : 2
Format                      : DTS
Format/Info                 : Digital Theater Systems
Format profile              : MA / ES Matrix / Core
Codec ID                    : A_DTS
Duration                    : 1 h 53 min
Bit rate mode               : Variable / Constant / Constant
Bit rate                    : 4 061 kb/s / 1 509 kb/s / 1 509 kb/s
Channel(s)                  : 8 channels / 7 channels / 6 channels
Channel positions           : Front: L C R, Side: L R, Back: L R, LFE / Front: L C R, Side: L R, Back: C, LFE / Front: L C R, Side: L R, LFE
Sampling rate               : 48.0 kHz
Frame rate                  : 93.750 FPS (512 SPF)
Bit depth                   : 24 bits
Compression mode            : Lossless / Lossy / Lossy
Stream size                 : 3.23 GiB (14%)
Title                       : English
Language                    : English
Default                     : Yes
Forced                      : No

Audio #2
ID                          : 3
Format                      : AC-3
Format/Info                 : Audio Coding 3
Codec ID                    : A_AC3
Duration                    : 1 h 53 min
Bit rate mode               : Constant
Bit rate                    : 448 kb/s
Channel(s)                  : 6 channels
Channel positions           : Front: L C R, Side: L R, LFE
Sampling rate               : 48.0 kHz
Frame rate                  : 31.250 FPS (1536 SPF)
Bit depth                   : 16 bits
Compression mode            : Lossy
Stream size                 : 365 MiB (2%)
Title                       : Turkish
Language                    : Turkish
Service kind                : Complete Main
Default                     : No
Forced                      : No

Text #1
ID                          : 4
Format                      : PGS
Muxing mode                 : zlib
Codec ID                    : S_HDMV/PGS
Codec ID/Info               : Picture based subtitle format used on BDs/HD-DVDs
Duration                    : 1 h 45 min
Bit rate                    : 51.1 kb/s
Count of elements           : 3958
Stream size                 : 38.7 MiB (0%)
Title                       : English
Language                    : English
Default                     : No
Forced                      : No

Text #2
ID                          : 5
Format                      : PGS
Muxing mode                 : zlib
Codec ID                    : S_HDMV/PGS
Codec ID/Info               : Picture based subtitle format used on BDs/HD-DVDs
Duration                    : 1 h 53 min
Bit rate                    : 41.6 kb/s
Count of elements           : 3144
Stream size                 : 33.6 MiB (0%)
Title                       : Turkish
Language                    : Turkish
Default                     : Yes
Forced                      : No

[Image: Q7Z00L.jpg]

[Image: 6Qfwy9.jpg]

[Image: tdown.png]

For Only Vip Members

Murder on the Orient Express (2017) Bluray Remux 1080p AVC DTS-HD MA 7.1 VIP
Reply


Possibly Related Threads…
Thread Author Replies Views Last Post
  Pineapple Express (2008) Bluray Remux 1080p AVC TrueHD 5.1 admin 0 526 05-07-2019, 08:48 PM
Last Post: admin
  Anatomy of a Murder (1959) Bluray Remux 1080p AVC DTS-HD MA 5.1 admin 0 582 05-06-2019, 08:18 PM
Last Post: admin
  A Perfect Murder (1998) Bluray Remux 1080p AVC DTS-HD MA 5.1 admin 0 655 03-25-2019, 07:43 PM
Last Post: admin

Forum Jump:


Users browsing this thread: 1 Guest(s)

Powered By MyBB
Theme By Audentio Design
Updated By iAndrew | 2018