Thread Rating:
  • 0 Vote(s) - 0 Average
  • 1
  • 2
  • 3
  • 4
  • 5

[-]
Tags
bluray avc ii 1080p hd ma 2004 mulan 1 remux dts 5

  Mulan II (2004) Bluray Remux 1080p AVC DTS-HD MA 5.1
#1
Mulan II (2004) Bluray Remux 1080p AVC DTS-HD MA 5.1

[Image: tt0279967.jpg]

[Image: imdb.png]
https://www.imdb.com/title/tt0279967/

[Image: info.png]
Mulan II 2004 EN.mkv
Format                      : Matroska
Format version              : Version 4 / Version 2
File size                   : 13.7 GiB
Duration                    : 1 h 18 min
Overall bit rate mode       : Variable
Overall bit rate            : 24.9 Mb/s
Movie name                  : Mulan II
Encoded date                : UTC 2018-01-09 19:19:23
Writing application         : mkvmerge v19.0.0 ('Brave Captain') 64-bit
Writing library             : libebml v1.3.5 + libmatroska v1.4.8

Video
ID                          : 1
Format                      : AVC
Format/Info                 : Advanced Video Codec
Format profile              : [email protected]
Format settings             : CABAC / 4 Ref Frames
Format settings, CABAC      : Yes
Format settings, ReFrames   : 4 frames
Format settings, GOP        : M=1, N=12
Codec ID                    : V_MPEG4/ISO/AVC
Duration                    : 1 h 18 min
Bit rate mode               : Variable
Bit rate                    : 20.9 Mb/s
Maximum bit rate            : 32.5 Mb/s
Width                       : 1 920 pixels
Height                      : 1 080 pixels
Display aspect ratio        : 16:9
Frame rate mode             : Constant
Frame rate                  : 23.976 (24000/1001) FPS
Color space                 : YUV
Chroma subsampling          : 4:2:0
Bit depth                   : 8 bits
Scan type                   : Progressive
Bits/(Pixel*Frame)          : 0.420
Stream size                 : 11.5 GiB (84%)
Title                       : Mulan II
Language                    : English
Default                     : Yes
Forced                      : No

Audio
ID                          : 2
Format                      : DTS
Format/Info                 : Digital Theater Systems
Format profile              : MA / Core
Codec ID                    : A_DTS
Duration                    : 1 h 18 min
Bit rate mode               : Variable / Constant
Bit rate                    : 3 971 kb/s / 1 509 kb/s
Channel(s)                  : 6 channels
Channel positions           : Front: L C R, Side: L R, LFE
Sampling rate               : 48.0 kHz
Frame rate                  : 93.750 FPS (512 SPF)
Bit depth                   : 24 bits
Compression mode            : Lossless / Lossy
Stream size                 : 2.18 GiB (16%)
Title                       : English
Language                    : English
Default                     : Yes
Forced                      : No

Text #1
ID                          : 3
Format                      : PGS
Muxing mode                 : zlib
Codec ID                    : S_HDMV/PGS
Codec ID/Info               : Picture based subtitle format used on BDs/HD-DVDs
Duration                    : 1 h 17 min
Bit rate                    : 50.3 kb/s
Count of elements           : 2960
Stream size                 : 28.1 MiB (0%)
Title                       : English
Language                    : English
Default                     : No
Forced                      : No

Text #2
ID                          : 4
Format                      : PGS
Muxing mode                 : zlib
Codec ID                    : S_HDMV/PGS
Codec ID/Info               : Picture based subtitle format used on BDs/HD-DVDs
Duration                    : 1 h 12 min
Bit rate                    : 34.8 kb/s
Count of elements           : 1936
Stream size                 : 18.2 MiB (0%)
Title                       : Turkish
Language                    : Turkish
Default                     : Yes
Forced                      : No

[Image: 40882041813_6f8d3af39a_b.jpg]

[Image: 46932618895_1446134212_b.jpg]

[Image: tdown.png]

For Only Vip Members

Mulan II (2004) Bluray Remux 1080p AVC DTS-HD MA 5.1 VIP
Reply


Possibly Related Threads…
Thread Author Replies Views Last Post
  The Incredibles (2004) Bluray REMUX 1080p AVC DTS-HD MA 5.1-HUSe AbrA 0 129 10-09-2020, 04:39 PM
Last Post: AbrA
  The Girl Next Door (2004) Bluray REMUX 1080p AVC DTS-HD MA 5.1-HUSe AbrA 0 270 09-05-2020, 10:52 PM
Last Post: AbrA
  Alexander (2004) Revisited The Final Cut Bluray REMUX 1080p EN-TR VC-1 DTS-HD 5.1-EPE AbrA 0 284 08-27-2020, 03:33 PM
Last Post: AbrA
  The Terminal (2004) Bluray Remux 1080p AVC DTS 5.1 admin 0 743 08-31-2019, 07:09 AM
Last Post: admin
  The Chronicles of Riddick (2004) Bluray Remux 1080p VC-1 DTS-HD MA 5.1 admin 0 890 08-23-2019, 07:48 PM
Last Post: admin

Forum Jump:


Users browsing this thread: 1 Guest(s)

Powered By MyBB
Theme By Audentio Design
Updated By iAndrew | 2018