Thread Rating:
  • 0 Vote(s) - 0 Average
  • 1
  • 2
  • 3
  • 4
  • 5

[-]
Tags
bluray moonwalker 1080p 1988 hd ma 1 vc remux dts 5

 
  Moonwalker (1988) Bluray Remux 1080p VC-1 DTS-HD MA 5.1
#1
Moonwalker (1988) Bluray Remux 1080p VC-1 DTS-HD MA 5.1

[Image: tt0095655.jpg]

[Image: imdb.png]
https://www.imdb.com/title/tt0095655/

[Image: info.png]
Moonwalker 1988 EN.mkv
Format                      : Matroska
Format version              : Version 4 / Version 2
File size                   : 16.6 GiB
Duration                    : 1 h 37 min
Overall bit rate            : 24.3 Mb/s
Encoded date                : UTC 2014-07-24 22:41:59
Writing application         : mkvmerge v7.0.0 ('Where We Going') 64bit built on Jun  9 2014 15:16:27
Writing library             : libebml v1.3.0 + libmatroska v1.4.1

Video
ID                          : 1
Format                      : VC-1
Format profile              : [email protected]
Codec ID                    : V_MS/VFW/FOURCC / WVC1
Codec ID/Hint               : Microsoft
Duration                    : 1 h 32 min
Bit rate                    : 21.2 Mb/s
Width                       : 1 920 pixels
Height                      : 1 080 pixels
Display aspect ratio        : 16:9
Frame rate mode             : Constant
Frame rate                  : 23.976 (24000/1001) FPS
Color space                 : YUV
Chroma subsampling          : 4:2:0
Bit depth                   : 8 bits
Scan type                   : Progressive
Compression mode            : Lossy
Bits/(Pixel*Frame)          : 0.426
Stream size                 : 13.7 GiB (83%)
Title                       : Moonwalker
Language                    : English
Default                     : Yes
Forced                      : No

Audio
ID                          : 2
Format                      : DTS
Format/Info                 : Digital Theater Systems
Format profile              : MA / Core
Codec ID                    : A_DTS
Duration                    : 1 h 32 min
Bit rate mode               : Variable / Constant
Bit rate                    : 4 339 kb/s / 1 509 kb/s
Channel(s)                  : 6 channels
Channel positions           : Front: L C R, Side: L R, LFE
Sampling rate               : 48.0 kHz
Frame rate                  : 93.750 FPS (512 SPF)
Bit depth                   : 24 bits
Compression mode            : Lossless / Lossy
Stream size                 : 2.81 GiB (17%)
Title                       : English
Language                    : English
Default                     : Yes
Forced                      : No

Text #1
ID                          : 3
Format                      : PGS
Muxing mode                 : zlib
Codec ID                    : S_HDMV/PGS
Codec ID/Info               : Picture based subtitle format used on BDs/HD-DVDs
Duration                    : 1 h 32 min
Bit rate                    : 13.8 kb/s
Count of elements           : 2224
Stream size                 : 9.11 MiB (0%)
Title                       : English
Language                    : English
Default                     : No
Forced                      : No

Text #2
ID                          : 4
Format                      : PGS
Muxing mode                 : zlib
Codec ID                    : S_HDMV/PGS
Codec ID/Info               : Picture based subtitle format used on BDs/HD-DVDs
Duration                    : 1 h 31 min
Bit rate                    : 3 471 b/s
Count of elements           : 562
Stream size                 : 2.27 MiB (0%)
Title                       : Turkish
Language                    : Turkish
Default                     : Yes
Forced                      : No

[Image: vlcsnap-error921-jpg-02da549e2f4683760f0...f532b4.jpg]

[Image: vlcsnap-error965-jpg-98bf3c8f2ca9ed31478...d8e30d.jpg]

[Image: tdown.png]

For Only Vip Members

Moonwalker (1988) Bluray Remux 1080p VC-1 DTS-HD MA 5.1 VIP
Reply


Possibly Related Threads…
Thread Author Replies Views Last Post
  Bloodsport (1988) Bluray REMUX 1080p EN-TR VC-1 DTS-HD MA 2.0 AbrA 0 9 07-27-2021, 12:26 PM
Last Post: AbrA
  Childs Play Series (1988-1990-1991) Bluray REMUX 1080p AVC DTS-HD MA 5.1/2.0-HUS AbrA 0 44 06-18-2021, 08:34 PM
Last Post: AbrA
  Deep Space 1988 1080p Blu-ray Remux AVC FLAC 2.0 - KRaLiMaRKo KAiJu 0 40 06-02-2021, 09:03 AM
Last Post: KAiJu
  Taffin 1988 1080p Remux AVC DTS-HD MA 2 0-playBD KAiJu 0 59 05-18-2021, 02:56 PM
Last Post: KAiJu
  A Fish Called Wanda 1988 Bluray REMUX 1080p AVC DTS-HD MA 5.1-HUS AbrA 0 74 05-01-2021, 12:41 PM
Last Post: AbrA

Forum Jump:


Users browsing this thread: 1 Guest(s)

Powered By MyBB
RSS RSS Syndication
Updated By iAndrew | 2021