Thread Rating:
  • 0 Vote(s) - 0 Average
  • 1
  • 2
  • 3
  • 4
  • 5

[-]
Tags
bluray momentum 2015 avc 1080p hd ma 1 remux dts 5

  Momentum (2015) Bluray Remux 1080p AVC DTS-HD MA 5.1
#1
Momentum (2015) Bluray Remux 1080p AVC DTS-HD MA 5.1

[Image: tt3181776.jpg]

[Image: imdb.png]
https://www.imdb.com/title/tt3181776/

[Image: info.png]
Momentum 2015 EN.mkv
Format                      : Matroska
Format version              : Version 4 / Version 2
File size                   : 22.3 GiB
Duration                    : 1 h 36 min
Overall bit rate mode       : Variable
Overall bit rate            : 33.3 Mb/s
Movie name                  : Momentum
Encoded date                : UTC 2016-09-21 17:09:22
Writing application         : mkvmerge v8.3.0 ('Over the Horizon') 64bit
Writing library             : libebml v1.3.1 + libmatroska v1.4.2

Video
ID                          : 1
Format                      : AVC
Format/Info                 : Advanced Video Codec
Format profile              : [email protected]
Format settings             : CABAC / 4 Ref Frames
Format settings, CABAC      : Yes
Format settings, ReFrames   : 4 frames
Format settings, GOP        : M=3, N=12
Codec ID                    : V_MPEG4/ISO/AVC
Duration                    : 1 h 36 min
Bit rate mode               : Variable
Bit rate                    : 29.8 Mb/s
Maximum bit rate            : 35.0 Mb/s
Width                       : 1 920 pixels
Height                      : 1 080 pixels
Display aspect ratio        : 16:9
Frame rate mode             : Constant
Frame rate                  : 23.976 (24000/1001) FPS
Color space                 : YUV
Chroma subsampling          : 4:2:0
Bit depth                   : 8 bits
Scan type                   : Progressive
Bits/(Pixel*Frame)          : 0.599
Stream size                 : 20.0 GiB (89%)
Title                       : Momentum
Language                    : English
Default                     : Yes
Forced                      : No

Audio
ID                          : 2
Format                      : DTS
Format/Info                 : Digital Theater Systems
Format profile              : MA / Core
Codec ID                    : A_DTS
Duration                    : 1 h 36 min
Bit rate mode               : Variable / Constant
Bit rate                    : 3 503 kb/s / 1 509 kb/s
Channel(s)                  : 6 channels
Channel positions           : Front: L C R, Side: L R, LFE
Sampling rate               : 48.0 kHz
Frame rate                  : 93.750 FPS (512 SPF)
Bit depth                   : 24 bits
Compression mode            : Lossless / Lossy
Stream size                 : 2.35 GiB (11%)
Title                       : English
Language                    : English
Default                     : Yes
Forced                      : No

Text
ID                          : 3
Format                      : PGS
Muxing mode                 : zlib
Codec ID                    : S_HDMV/PGS
Codec ID/Info               : Picture based subtitle format used on BDs/HD-DVDs
Duration                    : 1 h 28 min
Bit rate                    : 11.2 kb/s
Count of elements           : 1560
Stream size                 : 7.08 MiB (0%)
Title                       : Turkish
Language                    : Turkish
Default                     : Yes
Forced                      : No

[Image: vlcsnap-error398-jpg-5bd68875fd5fafe6f58...8e3433.jpg]

[Image: vlcsnap-error626-jpg-fa25799110b3aeccf28...f35031.jpg]

[Image: tdown.png]

For Only Vip Members

Momentum (2015) Bluray Remux 1080p AVC DTS-HD MA 5.1 VIP
Reply


Forum Jump:


Users browsing this thread: 1 Guest(s)

Powered By MyBB
Theme By Audentio Design
Updated By iAndrew | 2018