Thread Rating:
  • 0 Vote(s) - 0 Average
  • 1
  • 2
  • 3
  • 4
  • 5

[-]
Tags
bdc bluray dual avc 1080p bala hd ma 1 remux dts miss 5 2019

  Miss Bala (2019) Bluray Remux 1080p DUAL AVC DTS-HD MA 5.1-BdC
#1
Miss Bala (2019) Bluray Remux 1080p DUAL AVC DTS-HD MA 5.1-BdC

[Image: tt5941692.jpg]

[Image: imdb.png]
https://www.imdb.com/title/tt5941692/

[Image: info.png]
Miss Bala 2019 Bluray Remux 1080p DUAL AVC DTS-HD MA 5.1-BdC.mkv
Format                                   : Matroska
Format version                           : Version 4
File size                                : 20.4 GiB
Duration                                 : 1 h 43 min
Overall bit rate mode                    : Variable
Overall bit rate                         : 28.1 Mb/s
Encoded date                             : UTC 2019-05-05 20:38:21
Writing application                      : mkvmerge v8.3.0 ('Over the Horizon') 32bit
Writing library                          : libebml v1.3.1 + libmatroska v1.4.2

Video
ID                                       : 1
Format                                   : AVC
Format/Info                              : Advanced Video Codec
Format profile                           : [email protected]
Format settings                          : CABAC / 2 Ref Frames
Format settings, CABAC                   : Yes
Format settings, Reference frames        : 2 frames
Format settings, GOP                     : M=1, N=10
Codec ID                                 : V_MPEG4/ISO/AVC
Duration                                 : 1 h 43 min
Bit rate mode                            : Variable
Bit rate                                 : 24.9 Mb/s
Width                                    : 1 920 pixels
Height                                   : 1 080 pixels
Display aspect ratio                     : 16:9
Frame rate mode                          : Constant
Frame rate                               : 23.976 (24000/1001) FPS
Color space                              : YUV
Chroma subsampling                       : 4:2:0
Bit depth                                : 8 bits
Scan type                                : Progressive
Bits/(Pixel*Frame)                       : 0.501
Stream size                              : 18.1 GiB (89%)
Default                                  : Yes
Forced                                   : No

Audio #1
ID                                       : 2
Format                                   : AC-3
Format/Info                              : Audio Coding 3
Commercial name                          : Dolby Digital
Codec ID                                 : A_AC3
Duration                                 : 1 h 43 min
Bit rate mode                            : Constant
Bit rate                                 : 640 kb/s
Channel(s)                               : 6 channels
Channel layout                           : L R C LFE Ls Rs
Sampling rate                            : 48.0 kHz
Frame rate                               : 31.250 FPS (1536 SPF)
Bit depth                                : 16 bits
Compression mode                         : Lossy
Delay relative to video                  : -17 ms
Stream size                              : 476 MiB (2%)
Language                                 : Turkish
Service kind                             : Complete Main
Default                                  : Yes
Forced                                   : Yes

Audio #2
ID                                       : 3
Format                                   : DTS XLL
Format/Info                              : Digital Theater Systems
Commercial name                          : DTS-HD Master Audio
Codec ID                                 : A_DTS
Duration                                 : 1 h 43 min
Bit rate mode                            : Variable
Bit rate                                 : 2 220 kb/s
Channel(s)                               : 6 channels
Channel layout                           : C L R Ls Rs LFE
Sampling rate                            : 48.0 kHz
Frame rate                               : 93.750 FPS (512 SPF)
Bit depth                                : 16 bits
Compression mode                         : Lossless
Stream size                              : 1.61 GiB (8%)
Language                                 : English
Default                                  : No
Forced                                   : No

Text #1
ID                                       : 4
Format                                   : PGS
Muxing mode                              : zlib
Codec ID                                 : S_HDMV/PGS
Codec ID/Info                            : Picture based subtitle format used on BDs/HD-DVDs
Duration                                 : 1 h 40 min
Bit rate                                 : 17.6 kb/s
Count of elements                        : 2840
Stream size                              : 12.6 MiB (0%)
Language                                 : English
Default                                  : Yes
Forced                                   : No

Text #2
ID                                       : 5
Format                                   : PGS
Muxing mode                              : zlib
Codec ID                                 : S_HDMV/PGS
Codec ID/Info                            : Picture based subtitle format used on BDs/HD-DVDs
Duration                                 : 1 h 36 min
Bit rate                                 : 11.4 kb/s
Count of elements                        : 1902
Stream size                              : 7.90 MiB (0%)
Language                                 : English
Default                                  : No
Forced                                   : No

Text #3
ID                                       : 6
Format                                   : PGS
Muxing mode                              : zlib
Codec ID                                 : S_HDMV/PGS
Codec ID/Info                            : Picture based subtitle format used on BDs/HD-DVDs
Duration                                 : 1 h 42 min
Bit rate                                 : 12.5 kb/s
Count of elements                        : 1942
Stream size                              : 9.18 MiB (0%)
Language                                 : Chinese
Default                                  : No
Forced                                   : No

Text #4
ID                                       : 7
Format                                   : PGS
Muxing mode                              : zlib
Codec ID                                 : S_HDMV/PGS
Codec ID/Info                            : Picture based subtitle format used on BDs/HD-DVDs
Duration                                 : 1 h 42 min
Bit rate                                 : 12.4 kb/s
Count of elements                        : 1942
Stream size                              : 9.03 MiB (0%)
Language                                 : Chinese
Default                                  : No
Forced                                   : No

Text #5
ID                                       : 8
Format                                   : PGS
Muxing mode                              : zlib
Codec ID                                 : S_HDMV/PGS
Codec ID/Info                            : Picture based subtitle format used on BDs/HD-DVDs
Duration                                 : 1 h 42 min
Bit rate                                 : 10.3 kb/s
Count of elements                        : 1884
Stream size                              : 7.54 MiB (0%)
Language                                 : French
Default                                  : No
Forced                                   : No

Text #6
ID                                       : 9
Format                                   : PGS
Muxing mode                              : zlib
Codec ID                                 : S_HDMV/PGS
Codec ID/Info                            : Picture based subtitle format used on BDs/HD-DVDs
Duration                                 : 1 h 42 min
Bit rate                                 : 8 578 b/s
Count of elements                        : 2066
Stream size                              : 6.31 MiB (0%)
Language                                 : Korean
Default                                  : No
Forced                                   : No

Text #7
ID                                       : 10
Format                                   : PGS
Muxing mode                              : zlib
Codec ID                                 : S_HDMV/PGS
Codec ID/Info                            : Picture based subtitle format used on BDs/HD-DVDs
Duration                                 : 1 h 42 min
Bit rate                                 : 10.9 kb/s
Count of elements                        : 1928
Stream size                              : 7.97 MiB (0%)
Language                                 : Portuguese
Default                                  : No
Forced                                   : No

Text #8
ID                                       : 11
Format                                   : PGS
Muxing mode                              : zlib
Codec ID                                 : S_HDMV/PGS
Codec ID/Info                            : Picture based subtitle format used on BDs/HD-DVDs
Duration                                 : 1 h 42 min
Bit rate                                 : 8 358 b/s
Count of elements                        : 1352
Stream size                              : 6.12 MiB (0%)
Language                                 : Spanish
Default                                  : No
Forced                                   : No

Text #9
ID                                       : 12
Format                                   : PGS
Muxing mode                              : zlib
Codec ID                                 : S_HDMV/PGS
Codec ID/Info                            : Picture based subtitle format used on BDs/HD-DVDs
Duration                                 : 1 h 42 min
Bit rate                                 : 10.2 kb/s
Count of elements                        : 1940
Stream size                              : 7.49 MiB (0%)
Language                                 : Thai
Default                                  : No
Forced                                   : No

Text #10
ID                                       : 13
Format                                   : PGS
Muxing mode                              : zlib
Codec ID                                 : S_HDMV/PGS
Codec ID/Info                            : Picture based subtitle format used on BDs/HD-DVDs
Duration                                 : 1 h 40 min
Bit rate                                 : 1 301 b/s
Count of elements                        : 210
Stream size                              : 956 KiB (0%)
Language                                 : French
Default                                  : No
Forced                                   : No

Text #11
ID                                       : 14
Format                                   : PGS
Muxing mode                              : zlib
Codec ID                                 : S_HDMV/PGS
Codec ID/Info                            : Picture based subtitle format used on BDs/HD-DVDs
Duration                                 : 1 h 42 min
Bit rate                                 : 32.1 kb/s
Count of elements                        : 3476
Stream size                              : 23.5 MiB (0%)
Language                                 : English
Default                                  : No
Forced                                   : No

Text #12
ID                                       : 15
Format                                   : PGS
Muxing mode                              : zlib
Codec ID                                 : S_HDMV/PGS
Codec ID/Info                            : Picture based subtitle format used on BDs/HD-DVDs
Duration                                 : 1 h 42 min
Bit rate                                 : 34.2 kb/s
Count of elements                        : 3378
Stream size                              : 25.0 MiB (0%)
Language                                 : Chinese
Default                                  : No
Forced                                   : No

Text #13
ID                                       : 16
Format                                   : PGS
Muxing mode                              : zlib
Codec ID                                 : S_HDMV/PGS
Codec ID/Info                            : Picture based subtitle format used on BDs/HD-DVDs
Duration                                 : 1 h 42 min
Bit rate                                 : 24.7 kb/s
Count of elements                        : 3378
Stream size                              : 18.1 MiB (0%)
Language                                 : Korean
Default                                  : No
Forced                                   : No

Text #14
ID                                       : 17
Format                                   : PGS
Muxing mode                              : zlib
Codec ID                                 : S_HDMV/PGS
Codec ID/Info                            : Picture based subtitle format used on BDs/HD-DVDs
Duration                                 : 1 h 42 min
Bit rate                                 : 29.0 kb/s
Count of elements                        : 3294
Stream size                              : 21.3 MiB (0%)
Language                                 : Portuguese
Default                                  : No
Forced                                   : No

Text #15
ID                                       : 18
Format                                   : PGS
Muxing mode                              : zlib
Codec ID                                 : S_HDMV/PGS
Codec ID/Info                            : Picture based subtitle format used on BDs/HD-DVDs
Duration                                 : 1 h 42 min
Bit rate                                 : 27.5 kb/s
Count of elements                        : 3346
Stream size                              : 20.1 MiB (0%)
Language                                 : Spanish
Default                                  : No
Forced                                   : No

Text #16
ID                                       : 19
Format                                   : PGS
Muxing mode                              : zlib
Codec ID                                 : S_HDMV/PGS
Codec ID/Info                            : Picture based subtitle format used on BDs/HD-DVDs
Duration                                 : 1 h 42 min
Bit rate                                 : 28.0 kb/s
Count of elements                        : 3378
Stream size                              : 20.5 MiB (0%)
Language                                 : Thai
Default                                  : No
Forced                                   : No

[Image: wxbEqlUe_o.jpg]

[Image: z8DsSwYK_o.jpg]

[Image: tdown.png]

For Only Vip Members

Miss Bala (2019) Bluray Remux 1080p DUAL AVC DTS-HD MA 5.1-BdC VIP
Reply


Possibly Related Threads…
Thread Author Replies Views Last Post
  Miss Bala (2011) Bluray Remux 1080p AVC DTS-HD MA 7.1 admin 0 774 07-26-2019, 09:42 AM
Last Post: admin
  Miss Congeniality 1-2 (2000-2005) Bluray Remux 1080p VC-1 DTS-HD MA 5.1 admin 0 860 07-18-2019, 02:45 PM
Last Post: admin
  Little Miss Sunshine (2006) Bluray Remux 1080p AVC DTS-HD MA 5.1 admin 0 956 06-03-2019, 01:29 PM
Last Post: admin
  The Mule (2018) BluRay Remux 1080p DUAL AVC DTS-HD MA 5.1-BdC admin 2 1,231 05-04-2019, 05:03 PM
Last Post: admin
  Constantine (2005) Bluray Remux 1080p DUAL REMUX VC-1 TrueHD 5.1-BdC admin 0 1,136 05-04-2019, 01:45 PM
Last Post: admin

Forum Jump:


Users browsing this thread: 1 Guest(s)

Powered By MyBB
Theme By Audentio Design
Updated By iAndrew | 2018