Thread Rating:
  • 0 Vote(s) - 0 Average
  • 1
  • 2
  • 3
  • 4
  • 5

[-]
Tags
bluray avc 1080p 2017 megan hd ma 1 remux dts 5 leavey

  Megan Leavey (2017) Bluray Remux 1080p AVC DTS-HD MA 5.1
#1
Megan Leavey (2017) Bluray Remux 1080p AVC DTS-HD MA 5.1

[Image: tt4899370.jpg]

[Image: imdb.png]
https://www.imdb.com/title/tt4899370/

[Image: info.png]
Megan Leavey 2017 EN.mkv
Format                      : Matroska
Format version              : Version 4 / Version 2
File size                   : 31.0 GiB
Duration                    : 1 h 56 min
Overall bit rate mode       : Variable
Overall bit rate            : 38.0 Mb/s
Movie name                  : Megan Leavey
Encoded date                : UTC 2017-08-25 13:09:49
Writing application         : mkvmerge v15.0.0 ('Duel with the Devil') 64-bit
Writing library             : libebml v1.3.5 + libmatroska v1.4.5

Video
ID                          : 1
Format                      : AVC
Format/Info                 : Advanced Video Codec
Format profile              : [email protected]
Format settings             : CABAC / 4 Ref Frames
Format settings, CABAC      : Yes
Format settings, ReFrames   : 4 frames
Codec ID                    : V_MPEG4/ISO/AVC
Duration                    : 1 h 56 min
Bit rate mode               : Variable
Bit rate                    : 34.5 Mb/s
Maximum bit rate            : 37.0 Mb/s
Width                       : 1 920 pixels
Height                      : 1 080 pixels
Display aspect ratio        : 16:9
Frame rate mode             : Constant
Frame rate                  : 23.976 (24000/1001) FPS
Color space                 : YUV
Chroma subsampling          : 4:2:0
Bit depth                   : 8 bits
Scan type                   : Progressive
Bits/(Pixel*Frame)          : 0.694
Stream size                 : 28.1 GiB (91%)
Title                       : Megan Leavey
Language                    : English
Default                     : Yes
Forced                      : No

Audio
ID                          : 2
Format                      : DTS
Format/Info                 : Digital Theater Systems
Format profile              : MA / Core
Codec ID                    : A_DTS
Duration                    : 1 h 56 min
Bit rate mode               : Variable / Constant
Bit rate                    : 3 531 kb/s / 1 509 kb/s
Channel(s)                  : 6 channels
Channel positions           : Front: L C R, Side: L R, LFE
Sampling rate               : 48.0 kHz
Frame rate                  : 93.750 FPS (512 SPF)
Bit depth                   : 24 bits
Compression mode            : Lossless / Lossy
Stream size                 : 2.88 GiB (9%)
Title                       : English
Language                    : English
Default                     : Yes
Forced                      : No

Text #1
ID                          : 3
Format                      : PGS
Muxing mode                 : zlib
Codec ID                    : S_HDMV/PGS
Codec ID/Info               : Picture based subtitle format used on BDs/HD-DVDs
Duration                    : 1 h 47 min
Bit rate                    : 43.3 kb/s
Count of elements           : 3539
Stream size                 : 33.3 MiB (0%)
Title                       : English SDH
Language                    : English
Default                     : No
Forced                      : No

Text #2
ID                          : 4
Format                      : PGS
Muxing mode                 : zlib
Codec ID                    : S_HDMV/PGS
Codec ID/Info               : Picture based subtitle format used on BDs/HD-DVDs
Duration                    : 1 h 47 min
Bit rate                    : 29.2 kb/s
Count of elements           : 2606
Stream size                 : 22.5 MiB (0%)
Title                       : Turkish
Language                    : Turkish
Default                     : Yes
Forced                      : No

[Image: 40881436373_8177103606_b.jpg]

[Image: 33970896918_00b7b97838_b.jpg]

[Image: tdown.png]

For Only Vip Members

Megan Leavey (2017) Bluray Remux 1080p AVC DTS-HD MA 5.1 VIP
Reply


Forum Jump:


Users browsing this thread: 1 Guest(s)

Powered By MyBB
Theme By Audentio Design
Updated By iAndrew | 2018