Thread Rating:
  • 0 Vote(s) - 0 Average
  • 1
  • 2
  • 3
  • 4
  • 5

[-]
Tags
matchstick bluray avc 1080p en 2003 hd ma 1 remux men dts 5 tr

  Matchstick Men (2003) Bluray Remux 1080p TR-EN AVC DTS-HD MA 5.1
#1
Matchstick Men (2003) Bluray Remux 1080p TR-EN AVC DTS-HD MA 5.1

[Image: tt03258051.jpg]

[Image: imdb.png]
https://www.imdb.com/title/tt0325805/

[Image: info.png]
Matchstick Men 2003 TR EN.mkv
Format                      : Matroska
Format version              : Version 4 / Version 2
File size                   : 26.2 GiB
Duration                    : 1 h 56 min
Overall bit rate mode       : Variable
Overall bit rate            : 32.3 Mb/s
Movie name                  : Matchstick Men
Encoded date                : UTC 2015-10-15 11:27:32
Writing application         : mkvmerge v8.3.0 ('Over the Horizon') 64bit
Writing library             : libebml v1.3.1 + libmatroska v1.4.2

Video
ID                          : 1
Format                      : AVC
Format/Info                 : Advanced Video Codec
Format profile              : [email protected]
Format settings, CABAC      : Yes
Format settings, ReFrames   : 2 frames
Format settings, GOP        : M=1, N=10
Codec ID                    : V_MPEG4/ISO/AVC
Duration                    : 1 h 56 min
Bit rate mode               : Variable
Bit rate                    : 29.9 Mb/s
Width                       : 1 920 pixels
Height                      : 1 080 pixels
Display aspect ratio        : 16:9
Frame rate mode             : Constant
Frame rate                  : 23.976 (24000/1001) FPS
Color space                 : YUV
Chroma subsampling          : 4:2:0
Bit depth                   : 8 bits
Scan type                   : Progressive
Bits/(Pixel*Frame)          : 0.602
Stream size                 : 24.3 GiB (93%)
Title                       : Matchstick Men
Language                    : English
Default                     : Yes
Forced                      : No

Audio #1
ID                          : 2
Format                      : DTS
Format/Info                 : Digital Theater Systems
Format profile              : MA / Core
Mode                        : 16
Format settings, Endianness : Big
Codec ID                    : A_DTS
Duration                    : 1 h 56 min
Bit rate mode               : Variable / Constant
Bit rate                    : 2 129 kb/s / 1 509 kb/s
Channel(s)                  : 6 channels
Channel positions           : Front: L C R, Side: L R, LFE
Sampling rate               : 48.0 kHz
Frame rate                  : 93.750 FPS (512 spf)
Bit depth                   : 16 bits
Compression mode            : Lossless / Lossy
Stream size                 : 1.73 GiB (7%)
Title                       : English
Language                    : English
Default                     : Yes
Forced                      : No

Audio #2
ID                          : 3
Format                      : AC-3
Format/Info                 : Audio Coding 3
Mode                        : Dolby Digital
Format settings, Endianness : Big
Codec ID                    : A_AC3
Duration                    : 1 h 56 min
Bit rate mode               : Constant
Bit rate                    : 192 kb/s
Channel(s)                  : 2 channels
Channel positions           : Front: L R
Sampling rate               : 48.0 kHz
Frame rate                  : 31.250 FPS (1536 spf)
Bit depth                   : 16 bits
Compression mode            : Lossy
Stream size                 : 160 MiB (1%)
Title                       : Turkish
Language                    : Turkish
Service kind                : Complete Main
Default                     : No
Forced                      : No

Text #1
ID                          : 4
Format                      : PGS
Muxing mode                 : zlib
Codec ID                    : S_HDMV/PGS
Codec ID/Info               : Picture based subtitle format used on BDs/HD-DVDs
Duration                    : 1 h 55 min
Bit rate                    : 33.5 kb/s
Count of elements           : 3083
Stream size                 : 27.7 MiB (0%)
Title                       : English
Language                    : English
Default                     : No
Forced                      : No

Text #2
ID                          : 5
Format                      : PGS
Muxing mode                 : zlib
Codec ID                    : S_HDMV/PGS
Codec ID/Info               : Picture based subtitle format used on BDs/HD-DVDs
Duration                    : 1 h 55 min
Bit rate                    : 30.8 kb/s
Count of elements           : 2889
Stream size                 : 25.5 MiB (0%)
Title                       : Turkish
Language                    : Turkish
Default                     : Yes
Forced                      : No

[Image: vlcsnap-error769-jpg-94f41fe143fda26a868...c21e6b.jpg]

[Image: vlcsnap-error786-jpg-df5e32925401f0d775c...ba2548.jpg]

[Image: tdown.png]

For Only Vip Members

Matchstick Men (2003) Bluray Remux 1080p TR-EN AVC DTS-HD MA 5.1 VIP
Reply


Possibly Related Threads…
Thread Author Replies Views Last Post
  The League of Extraordinary Gentlemen (2003) Bluray REMUX 1080p AVC DTS-HD MA 5.1-HUS AbrA 0 59 11-17-2020, 04:24 PM
Last Post: AbrA
  The Last Samurai (2003) Bluray REMUX 1080p VC-1 TRUEHD 5.1-HUSe AbrA 0 88 11-05-2020, 12:11 PM
Last Post: AbrA
  Runaway Jury (2003) Bluray REMUX 1080p AVC DTS-HD 5.1-HUSe AbrA 0 430 05-31-2020, 05:26 PM
Last Post: AbrA
  Love Me If You Dare (2003) Bluray REMUX 1080p FR-TR AVC DD 5.1-HuSe admin 0 701 03-27-2020, 08:51 PM
Last Post: admin
  Wrong Turn 1-2-3-4-5-6 (2003-2014) Bluray Remux 1080p AVC DTS-HD MA 5.1 admin 1 1,258 01-31-2020, 06:04 AM
Last Post: lalo01go

Forum Jump:


Users browsing this thread: 1 Guest(s)

Powered By MyBB
Theme By Audentio Design
Updated By iAndrew | 2018