Thread Rating:
  • 0 Vote(s) - 0 Average
  • 1
  • 2
  • 3
  • 4
  • 5

[-]
Tags
bluray marrowbone avc 1080p 2017 hd ma 1 remux dts 5

  Marrowbone (2017) Bluray Remux 1080p AVC DTS-HD MA 5.1
#1
Marrowbone (2017) Bluray Remux 1080p AVC DTS-HD MA 5.1

[Image: tt5886440.jpg]

[Image: imdb.png]
https://www.imdb.com/title/tt5886440/

[Image: info.png]
Marrowbone 2017 EN.mkv
Format                      : Matroska
Format version              : Version 4 / Version 2
File size                   : 24.9 GiB
Duration                    : 1 h 50 min
Overall bit rate mode       : Variable
Overall bit rate            : 32.2 Mb/s
Movie name                  : Marrowbone
Encoded date                : UTC 2018-03-04 21:01:36
Writing application         : mkvmerge v21.0.0 ('Tardigrades Will Inherit The Earth') 64-bit
Writing library             : libebml v1.3.5 + libmatroska v1.4.8

Video
ID                          : 1
Format                      : AVC
Format/Info                 : Advanced Video Codec
Format profile              : [email protected]
Format settings             : CABAC / 4 Ref Frames
Format settings, CABAC      : Yes
Format settings, ReFrames   : 4 frames
Codec ID                    : V_MPEG4/ISO/AVC
Duration                    : 1 h 50 min
Bit rate mode               : Variable
Bit rate                    : 29.8 Mb/s
Maximum bit rate            : 33.0 Mb/s
Width                       : 1 920 pixels
Height                      : 1 080 pixels
Display aspect ratio        : 16:9
Frame rate mode             : Constant
Frame rate                  : 23.976 (24000/1001) FPS
Color space                 : YUV
Chroma subsampling          : 4:2:0
Bit depth                   : 8 bits
Scan type                   : Progressive
Bits/(Pixel*Frame)          : 0.600
Stream size                 : 23.1 GiB (93%)
Title                       : Marrowbone
Language                    : English
Default                     : Yes
Forced                      : No

Audio
ID                          : 2
Format                      : DTS
Format/Info                 : Digital Theater Systems
Format profile              : MA / Core
Codec ID                    : A_DTS
Duration                    : 1 h 50 min
Bit rate mode               : Variable / Constant
Bit rate                    : 2 370 kb/s / 1 509 kb/s
Channel(s)                  : 6 channels
Channel positions           : Front: L C R, Side: L R, LFE
Sampling rate               : 48.0 kHz
Frame rate                  : 93.750 FPS (512 SPF)
Bit depth                   : 24 bits
Compression mode            : Lossless / Lossy
Stream size                 : 1.83 GiB (7%)
Title                       : DTS-HD Master Audio / 5.1 / 48 kHz / 2370 kbps / 24-bit
Language                    : English
Default                     : Yes
Forced                      : No

Text
ID                          : 3
Format                      : PGS
Muxing mode                 : zlib
Codec ID                    : S_HDMV/PGS
Codec ID/Info               : Picture based subtitle format used on BDs/HD-DVDs
Duration                    : 1 h 41 min
Bit rate                    : 18.2 kb/s
Count of elements           : 1866
Stream size                 : 13.2 MiB (0%)
Title                       : Turkish
Language                    : Turkish
Default                     : Yes
Forced                      : No

[Image: YDTVNs.jpg]

[Image: zN93sW.jpg]

[Image: tdown.png]

For Only Vip Members

Marrowbone (2017) Bluray Remux 1080p AVC DTS-HD MA 5.1 VIP
Reply


Forum Jump:


Users browsing this thread: 1 Guest(s)

Powered By MyBB
Theme By Audentio Design
Updated By iAndrew | 2018