Thread Rating:
  • 0 Vote(s) - 0 Average
  • 1
  • 2
  • 3
  • 4
  • 5

[-]
Tags
to long bluray walk avc 2013 1080p hd ma 1 remux freedom dts 5 mandela

  Mandela Long Walk to Freedom (2013) Bluray Remux 1080p AVC DTS-HD MA 5.1
#1
Mandela Long Walk to Freedom (2013) Bluray Remux 1080p AVC DTS-HD MA 5.1

[Image: tt2304771.jpg]

[Image: imdb.png]
https://www.imdb.com/title/tt2304771/

[Image: info.png]
Mandela Long Walk to Freedom 2013 EN.mkv
Format                      : Matroska
Format version              : Version 4 / Version 2
File size                   : 29.7 GiB
Duration                    : 2 h 21 min
Overall bit rate mode       : Variable
Overall bit rate            : 30.2 Mb/s
Movie name                  : Mandela: Long Walk to Freedom
Encoded date                : UTC 2018-02-21 19:34:52
Writing application         : mkvmerge v20.0.0 ('I Am The Sun') 64-bit
Writing library             : libebml v1.3.5 + libmatroska v1.4.8

Video
ID                          : 1
Format                      : AVC
Format/Info                 : Advanced Video Codec
Format profile              : [email protected]
Format settings             : CABAC / 2 Ref Frames
Format settings, CABAC      : Yes
Format settings, ReFrames   : 2 frames
Codec ID                    : V_MPEG4/ISO/AVC
Duration                    : 2 h 21 min
Bit rate mode               : Variable
Bit rate                    : 26.3 Mb/s
Width                       : 1 920 pixels
Height                      : 1 080 pixels
Display aspect ratio        : 16:9
Frame rate mode             : Constant
Frame rate                  : 23.976 (24000/1001) FPS
Color space                 : YUV
Chroma subsampling          : 4:2:0
Bit depth                   : 8 bits
Scan type                   : Progressive
Bits/(Pixel*Frame)          : 0.529
Stream size                 : 25.9 GiB (87%)
Title                       : Mandela: Long Walk to Freedom
Language                    : English
Default                     : Yes
Forced                      : No

Audio
ID                          : 2
Format                      : DTS
Format/Info                 : Digital Theater Systems
Format profile              : MA / Core
Codec ID                    : A_DTS
Duration                    : 2 h 21 min
Bit rate mode               : Variable / Constant
Bit rate                    : 3 840 kb/s / 1 509 kb/s
Channel(s)                  : 6 channels
Channel positions           : Front: L C R, Side: L R, LFE
Sampling rate               : 48.0 kHz
Frame rate                  : 93.750 FPS (512 SPF)
Bit depth                   : 24 bits
Compression mode            : Lossless / Lossy
Stream size                 : 3.79 GiB (13%)
Title                       : English
Language                    : English
Default                     : Yes
Forced                      : No

Text #1
ID                          : 3
Format                      : PGS
Muxing mode                 : zlib
Codec ID                    : S_HDMV/PGS
Codec ID/Info               : Picture based subtitle format used on BDs/HD-DVDs
Duration                    : 2 h 13 min
Bit rate                    : 33.3 kb/s
Count of elements           : 3274
Stream size                 : 31.9 MiB (0%)
Title                       : English SDH
Language                    : English
Default                     : No
Forced                      : No

Text #2
ID                          : 4
Format                      : PGS
Muxing mode                 : zlib
Codec ID                    : S_HDMV/PGS
Codec ID/Info               : Picture based subtitle format used on BDs/HD-DVDs
Duration                    : 2 h 13 min
Bit rate                    : 25.3 kb/s
Count of elements           : 2320
Stream size                 : 24.2 MiB (0%)
Title                       : Turkish
Language                    : Turkish
Default                     : Yes
Forced                      : No

[Image: oAS8pf.jpg]

[Image: 5Cz2Us.jpg]

[Image: tdown.png]

For Only Vip Members

Mandela Long Walk to Freedom (2013) Bluray Remux 1080p AVC DTS-HD MA 5.1 VIP
Reply


Possibly Related Threads…
Thread Author Replies Views Last Post
  Long Days Journey Into Night (2018) Bluray Remux 1080p TR-EN AVC DTS-HD MA 5.1-BdC admin 0 394 12-21-2019, 07:23 PM
Last Post: admin
  The Walk (2015) Bluray Remux 1080p TR EN AVC DTS-HD MA 5.1 admin 0 420 09-05-2019, 10:19 AM
Last Post: admin
  Long Shot (2019) Bluray Remux 1080p AVC TrueHD 7.1 admin 0 587 08-23-2019, 01:41 PM
Last Post: admin
Video Cry Freedom (1987) Bluray Remux 1080p AVC DTS-HD MA 2.0 admin 0 363 07-16-2019, 02:29 PM
Last Post: admin
  Walk Hard The Dewey Cox Story (2007) Bluray Remux 1080p AVC TrueHD 5.1 admin 0 516 05-22-2019, 12:30 PM
Last Post: admin

Forum Jump:


Users browsing this thread: 1 Guest(s)

Powered By MyBB
Theme By Audentio Design
Updated By iAndrew | 2018