Thread Rating:
  • 0 Vote(s) - 0 Average
  • 1
  • 2
  • 3
  • 4
  • 5

[-]
Tags
chi bluray man avc 2013 1080p of tai hd ma 1 remux dts 5

  Man of Tai Chi (2013) Bluray Remux 1080p AVC DTS-HD MA 5.1
#1
Man of Tai Chi (2013) Bluray Remux 1080p AVC DTS-HD MA 5.1

[Image: tt2016940.jpg]

[Image: imdb.png]
https://www.imdb.com/title/tt2016940/

[Image: info.png]
Man of Tai Chi 2013 EN.mkv
Format                      : Matroska
Format version              : Version 4 / Version 2
File size                   : 28.2 GiB
Duration                    : 1 h 45 min
Overall bit rate mode       : Variable
Overall bit rate            : 38.4 Mb/s
Encoded date                : UTC 2014-07-29 13:28:23
Writing application         : mkvmerge v7.1.0 ('Good Love') 64bit built on Jul 27 2014 13:06:55
Writing library             : libebml v1.3.0 + libmatroska v1.4.1

Video
ID                          : 1
Format                      : AVC
Format/Info                 : Advanced Video Codec
Format profile              : [email protected]
Format settings, CABAC      : Yes
Format settings, ReFrames   : 2 frames
Codec ID                    : V_MPEG4/ISO/AVC
Duration                    : 1 h 45 min
Bit rate mode               : Variable
Bit rate                    : 34.8 Mb/s
Width                       : 1 920 pixels
Height                      : 1 080 pixels
Display aspect ratio        : 16:9
Frame rate mode             : Constant
Frame rate                  : 23.976 (24000/1001) FPS
Color space                 : YUV
Chroma subsampling          : 4:2:0
Bit depth                   : 8 bits
Scan type                   : Progressive
Bits/(Pixel*Frame)          : 0.700
Stream size                 : 25.6 GiB (91%)
Title                       : Man of Tai Chi
Language                    : English
Default                     : Yes
Forced                      : No

Audio
ID                          : 2
Format                      : DTS
Format/Info                 : Digital Theater Systems
Format profile              : MA / Core
Mode                        : 16
Format settings, Endianness : Big
Codec ID                    : A_DTS
Duration                    : 1 h 45 min
Bit rate mode               : Variable / Constant
Bit rate                    : 3 622 kb/s / 1 509 kb/s
Channel(s)                  : 6 channels
Channel positions           : Front: L C R, Side: L R, LFE
Sampling rate               : 48.0 kHz
Frame rate                  : 93.750 FPS (512 spf)
Bit depth                   : 24 bits
Compression mode            : Lossless / Lossy
Stream size                 : 2.66 GiB (9%)
Title                       : English
Language                    : English
Default                     : Yes
Forced                      : No

Text #1
ID                          : 3
Format                      : PGS
Muxing mode                 : zlib
Codec ID                    : S_HDMV/PGS
Codec ID/Info               : Picture based subtitle format used on BDs/HD-DVDs
Duration                    : 1 h 43 min
Bit rate                    : 6 811 b/s
Count of elements           : 1889
Stream size                 : 5.06 MiB (0%)
Title                       : English
Language                    : English
Default                     : No
Forced                      : No

Text #2
ID                          : 4
Format                      : PGS
Muxing mode                 : zlib
Codec ID                    : S_HDMV/PGS
Codec ID/Info               : Picture based subtitle format used on BDs/HD-DVDs
Duration                    : 1 h 35 min
Bit rate                    : 7 962 b/s
Count of elements           : 1384
Stream size                 : 5.44 MiB (0%)
Title                       : Turkish
Language                    : Turkish
Default                     : Yes
Forced                      : No

[Image: vlcsnap-error315-jpg-7f8e3993cc10292fa3d...59b334.jpg]

[Image: vlcsnap-error979-jpg-ad9309f61216e028ca2...66cce9.jpg]

[Image: tdown.png]

For Only Vip Members

Man of Tai Chi (2013) Bluray Remux 1080p AVC DTS-HD MA 5.1 VIP
Reply


Forum Jump:


Users browsing this thread: 1 Guest(s)

Powered By MyBB
Theme By Audentio Design
Updated By iAndrew | 2018