Thread Rating:
  • 0 Vote(s) - 0 Average
  • 1
  • 2
  • 3
  • 4
  • 5

[-]
Tags
bluray 1999 1080p magnolia 1 vc remux 5 truehd

  Magnolia (1999) Bluray Remux 1080p VC-1 TrueHD 5.1
#1
Magnolia (1999) Bluray Remux 1080p VC-1 TrueHD 5.1

[Image: tt0175880.jpg]

[Image: imdb.png]
https://www.imdb.com/title/tt0175880/

[Image: info.png]
Magnolia 1999 EN.mkv
Format                      : Matroska
Format version              : Version 4 / Version 2
File size                   : 31.2 GiB
Duration                    : 3 h 8 min
Overall bit rate mode       : Variable
Overall bit rate            : 23.7 Mb/s
Movie name                  : Magnolia
Encoded date                : UTC 2016-10-22 23:27:37
Writing application         : mkvmerge v9.5.0 ('Quiet Fire') 64bit
Writing library             : libebml v1.3.4 + libmatroska v1.4.5

Video
ID                          : 1
Format                      : VC-1
Format profile              : [email protected]
Codec ID                    : V_MS/VFW/FOURCC / WVC1
Codec ID/Hint               : Microsoft
Duration                    : 3 h 8 min
Bit rate                    : 21.4 Mb/s
Width                       : 1 920 pixels
Height                      : 1 080 pixels
Display aspect ratio        : 16:9
Frame rate mode             : Constant
Frame rate                  : 23.976 (24000/1001) FPS
Color space                 : YUV
Chroma subsampling          : 4:2:0
Bit depth                   : 8 bits
Scan type                   : Progressive
Compression mode            : Lossy
Bits/(Pixel*Frame)          : 0.430
Stream size                 : 28.2 GiB (90%)
Title                       : Magnolia
Language                    : English
Default                     : Yes
Forced                      : No

Audio #1
ID                          : 2
Format                      : TrueHD
Codec ID                    : A_TRUEHD
Duration                    : 3 h 8 min
Bit rate mode               : Variable
Bit rate                    : 1 559 kb/s
Maximum bit rate            : 3 585 kb/s
Channel(s)                  : 6 channels
Channel positions           : Front: L C R, Side: L R, LFE
Sampling rate               : 48.0 kHz
Frame rate                  : 1 200.000 FPS (40 spf)
Compression mode            : Lossless
Stream size                 : 2.06 GiB (7%)
Title                       : English THD
Language                    : English
Default                     : Yes
Forced                      : No

Audio #2
ID                          : 3
Format                      : AC-3
Format/Info                 : Audio Coding 3
Format settings, Endianness : Big
Codec ID                    : A_AC3
Duration                    : 3 h 8 min
Bit rate mode               : Constant
Bit rate                    : 640 kb/s
Channel(s)                  : 6 channels
Channel positions           : Front: L C R, Side: L R, LFE
Sampling rate               : 48.0 kHz
Frame rate                  : 31.250 FPS (1536 spf)
Bit depth                   : 16 bits
Compression mode            : Lossy
Stream size                 : 864 MiB (3%)
Title                       : English AC3
Language                    : English
Service kind                : Complete Main
Default                     : No
Forced                      : No

Text #1
ID                          : 4
Format                      : PGS
Muxing mode                 : zlib
Codec ID                    : S_HDMV/PGS
Codec ID/Info               : Picture based subtitle format used on BDs/HD-DVDs
Duration                    : 3 h 0 min
Bit rate                    : 19.5 kb/s
Count of elements           : 5522
Stream size                 : 25.2 MiB (0%)
Title                       : English
Language                    : English
Default                     : No
Forced                      : No

Text #2
ID                          : 5
Format                      : PGS
Muxing mode                 : zlib
Codec ID                    : S_HDMV/PGS
Codec ID/Info               : Picture based subtitle format used on BDs/HD-DVDs
Duration                    : 3 h 0 min
Bit rate                    : 15.0 kb/s
Count of elements           : 5252
Stream size                 : 19.4 MiB (0%)
Title                       : Turkish
Language                    : Turkish
Default                     : Yes
Forced                      : No

[Image: vlcsnap-error246-jpg-36076c71edb8bad3a12...9bfb92.jpg]

[Image: vlcsnap-error676-jpg-2978a6d840e9f035065...068491.jpg]

[Image: tdown.png]

For Only Vip Members

Magnolia (1999) Bluray Remux 1080p VC-1 TrueHD 5.1 VIP
Reply


Possibly Related Threads…
Thread Author Replies Views Last Post
  Ravenous (1999) Bluray REMUX 1080p EN-TR AVC DTS-HD MA 5.1-RDP AbrA 0 46 11-28-2020, 08:37 PM
Last Post: AbrA
  The Bone Collector (1999) Bluray REMUX 1080p AVC TrueHD 5.1-HUSe AbrA 0 116 10-14-2020, 12:24 PM
Last Post: AbrA
  The Green Mile (1999) Bluray REMUX 1080p VC-1 TrueHD 5.1-HUSe AbrA 0 178 09-14-2020, 08:44 PM
Last Post: AbrA
  Stir Of Echoes (1999) Bluray REMUX 1080p AVC DTS-HD MA 6.1 AbrA 0 411 07-07-2020, 07:55 AM
Last Post: AbrA
  The Thirteenth Floor (1999) Bluray Remux 1080p AVC TrueHD 5.1 admin 0 846 09-02-2019, 03:01 PM
Last Post: admin

Forum Jump:


Users browsing this thread: 1 Guest(s)

Powered By MyBB
Theme By Audentio Design
Updated By iAndrew | 2018