Thread Rating:
  • 0 Vote(s) - 0 Average
  • 1
  • 2
  • 3
  • 4
  • 5

[-]
Tags
bluray made avc 1080p of en honor 1 remux 5 tr truehd 2008

 
  Made of Honor (2008) Bluray Remux 1080p TR-EN AVC TrueHD 5.1
#1
Made of Honor (2008) Bluray Remux 1080p TR-EN AVC TrueHD 5.1

[Image: tt0866439.jpg]

[Image: imdb.png]
https://www.imdb.com/title/tt0866439/

[Image: info.png]
Made of Honor 2008 TR EN.mkv
Format                      : Matroska
Format version              : Version 4 / Version 2
File size                   : 25.6 GiB
Duration                    : 1 h 41 min
Overall bit rate mode       : Variable
Overall bit rate            : 36.0 Mb/s
Movie name                  : Made of Honor
Encoded date                : UTC 2015-04-17 22:12:32
Writing application         : mkvmerge v7.8.0 ('River Man') 64bit built on Mar 27 2015 16:31:37
Writing library             : libebml v1.3.1 + libmatroska v1.4.2

Video
ID                          : 1
Format                      : AVC
Format/Info                 : Advanced Video Codec
Format profile              : [email protected]
Format settings, CABAC      : Yes
Format settings, ReFrames   : 4 frames
Codec ID                    : V_MPEG4/ISO/AVC
Duration                    : 1 h 41 min
Bit rate mode               : Variable
Bit rate                    : 31.4 Mb/s
Maximum bit rate            : 34.0 Mb/s
Width                       : 1 920 pixels
Height                      : 1 080 pixels
Display aspect ratio        : 16:9
Frame rate mode             : Constant
Frame rate                  : 23.976 (24000/1001) FPS
Color space                 : YUV
Chroma subsampling          : 4:2:0
Bit depth                   : 8 bits
Scan type                   : Progressive
Bits/(Pixel*Frame)          : 0.633
Stream size                 : 22.3 GiB (87%)
Title                       : Made of Honor
Language                    : English
Default                     : Yes
Forced                      : No
Color range                 : Limited
Color primaries             : BT.709
Transfer characteristics    : BT.709
Matrix coefficients         : BT.709

Audio #1
ID                          : 2
Format                      : TrueHD
Codec ID                    : A_TRUEHD
Duration                    : 1 h 41 min
Bit rate mode               : Variable
Bit rate                    : 3 212 kb/s
Maximum bit rate            : 4 950 kb/s
Channel(s)                  : 6 channels
Channel positions           : Front: L C R, Side: L R, LFE
Sampling rate               : 48.0 kHz
Frame rate                  : 1 200.000 FPS (40 spf)
Compression mode            : Lossless
Stream size                 : 2.28 GiB (9%)
Title                       : English
Language                    : English
Default                     : Yes
Forced                      : No

Audio #2
ID                          : 4
Format                      : AC-3
Format/Info                 : Audio Coding 3
Format settings, Endianness : Big
Codec ID                    : A_AC3
Duration                    : 1 h 41 min
Bit rate mode               : Constant
Bit rate                    : 640 kb/s
Channel(s)                  : 6 channels
Channel positions           : Front: L C R, Side: L R, LFE
Sampling rate               : 48.0 kHz
Frame rate                  : 31.250 FPS (1536 spf)
Bit depth                   : 16 bits
Compression mode            : Lossy
Stream size                 : 465 MiB (2%)
Title                       : Turkish
Language                    : Turkish
Service kind                : Complete Main
Default                     : No
Forced                      : No

Audio #3
ID                          : 3
Format                      : AC-3
Format/Info                 : Audio Coding 3
Format settings, Endianness : Big
Codec ID                    : A_AC3
Duration                    : 1 h 41 min
Bit rate mode               : Constant
Bit rate                    : 640 kb/s
Channel(s)                  : 6 channels
Channel positions           : Front: L C R, Side: L R, LFE
Sampling rate               : 48.0 kHz
Frame rate                  : 31.250 FPS (1536 spf)
Bit depth                   : 16 bits
Compression mode            : Lossy
Stream size                 : 465 MiB (2%)
Title                       : English
Language                    : English
Service kind                : Complete Main
Default                     : No
Forced                      : No

Text #1
ID                          : 5
Format                      : PGS
Muxing mode                 : zlib
Codec ID                    : S_HDMV/PGS
Codec ID/Info               : Picture based subtitle format used on BDs/HD-DVDs
Duration                    : 1 h 35 min
Bit rate                    : 18.8 kb/s
Count of elements           : 3014
Stream size                 : 12.9 MiB (0%)
Title                       : English
Language                    : English
Default                     : No
Forced                      : No

Text #2
ID                          : 6
Format                      : PGS
Muxing mode                 : zlib
Codec ID                    : S_HDMV/PGS
Codec ID/Info               : Picture based subtitle format used on BDs/HD-DVDs
Duration                    : 1 h 36 min
Bit rate                    : 17.3 kb/s
Count of elements           : 3046
Stream size                 : 11.9 MiB (0%)
Title                       : Turkish
Language                    : Turkish
Default                     : Yes
Forced                      : No

[Image: vlcsnap-error015-jpg-31001f4926c9e6b4145...0e4e20.jpg]

[Image: vlcsnap-error350-jpg-c082c361141895f3602...c207eb.jpg]

[Image: tdown.png]

For Only Vip Members

Made of Honor (2008) Bluray Remux 1080p TR-EN AVC TrueHD 5.1 VIP
Reply


Possibly Related Threads…
Thread Author Replies Views Last Post
  Seven Pounds 2008 1080p Blu-ray Remux AVC TrueHD 5.1 - KRaLiMaRKo KAiJu 0 8 11-06-2021, 09:35 PM
Last Post: KAiJu
  Rachel Getting Married (2008) Bluray REMUX 1080p AVC TrueHD 5.1-HUS AbrA 0 12 11-06-2021, 07:27 PM
Last Post: AbrA
  What Just Happened 2008 1080p Blu-ray Remux AVC DTS-HD MA 5.1-HDT KAiJu 0 47 10-06-2021, 06:33 AM
Last Post: KAiJu
  Mi-in-do 2008 1080p Blu-ray Remux AVC DTS-HD MA 5.1 - KRaLiMaRKo KAiJu 0 54 09-27-2021, 06:56 AM
Last Post: KAiJu
  The Conjuring The Devil Made Me Do It 2021 1080p Remux AVC TrueHD Atmos 7 1-playBD KAiJu 0 88 08-16-2021, 10:07 AM
Last Post: KAiJu

Forum Jump:


Users browsing this thread: 1 Guest(s)

Powered By MyBB
RSS RSS Syndication
Updated By iAndrew | 2021