Thread Rating:
  • 0 Vote(s) - 0 Average
  • 1
  • 2
  • 3
  • 4
  • 5

[-]
Tags
bluray avc marriage 1080p en wedding hd love ma 1 2011 remux dts 5 tr

 
  Love Wedding Marriage (2011) Bluray Remux 1080p TR-EN AVC DTS-HD MA 5.1
#1
Love Wedding Marriage (2011) Bluray Remux 1080p TR-EN AVC DTS-HD MA 5.1

[Image: tt1436559.jpg]

[Image: imdb.png]
https://www.imdb.com/title/tt1436559/

[Image: info.png]
Love, Wedding, Marriage 2011 TR EN.mkv
Format                      : Matroska
Format version              : Version 4 / Version 2
File size                   : 15.0 GiB
Duration                    : 1 h 30 min
Overall bit rate mode       : Variable
Overall bit rate            : 23.7 Mb/s
Movie name                  : Love, Wedding, Marriage
Encoded date                : UTC 2017-11-23 22:00:56
Writing application         : mkvmerge v18.0.0 ('Apricity') 64-bit
Writing library             : libebml v1.3.5 + libmatroska v1.4.8

Video
ID                          : 1
Format                      : AVC
Format/Info                 : Advanced Video Codec
Format profile              : [email protected]
Format settings, CABAC      : Yes
Format settings, ReFrames   : 4 frames
Codec ID                    : V_MPEG4/ISO/AVC
Duration                    : 1 h 30 min
Bit rate mode               : Variable
Bit rate                    : 20.0 Mb/s
Maximum bit rate            : 35.0 Mb/s
Width                       : 1 920 pixels
Height                      : 1 080 pixels
Display aspect ratio        : 16:9
Frame rate mode             : Constant
Frame rate                  : 23.976 (24000/1001) FPS
Standard                    : NTSC
Color space                 : YUV
Chroma subsampling          : 4:2:0
Bit depth                   : 8 bits
Scan type                   : Progressive
Bits/(Pixel*Frame)          : 0.402
Stream size                 : 12.6 GiB (84%)
Title                       : Love, Wedding, Marriage
Language                    : English
Default                     : Yes
Forced                      : No
Color range                 : Limited
Color primaries             : BT.709
Transfer characteristics    : BT.709
Matrix coefficients         : BT.709

Audio #1
ID                          : 2
Format                      : DTS
Format/Info                 : Digital Theater Systems
Format profile              : MA / Core
Mode                        : 16
Format settings, Endianness : Big
Codec ID                    : A_DTS
Duration                    : 1 h 30 min
Bit rate mode               : Variable / Constant
Bit rate                    : 1 920 kb/s / 1 509 kb/s
Channel(s)                  : 6 channels
Channel positions           : Front: L C R, Side: L R, LFE
Sampling rate               : 48.0 kHz
Frame rate                  : 93.750 FPS (512 spf)
Bit depth                   : 16 bits
Compression mode            : Lossless / Lossy
Stream size                 : 1.23 GiB (8%)
Title                       : Turkish
Language                    : Turkish
Default                     : No
Forced                      : No

Audio #2
ID                          : 3
Format                      : DTS
Format/Info                 : Digital Theater Systems
Format profile              : MA / Core
Mode                        : 16
Format settings, Endianness : Big
Codec ID                    : A_DTS
Duration                    : 1 h 30 min
Bit rate mode               : Variable / Constant
Bit rate                    : 1 759 kb/s / 1 509 kb/s
Channel(s)                  : 6 channels
Channel positions           : Front: L C R, Side: L R, LFE
Sampling rate               : 48.0 kHz
Frame rate                  : 93.750 FPS (512 spf)
Bit depth                   : 16 bits
Compression mode            : Lossless / Lossy
Stream size                 : 1.11 GiB (7%)
Title                       : English
Language                    : English
Default                     : Yes
Forced                      : No

Text
ID                          : 4
Format                      : PGS
Muxing mode                 : zlib
Codec ID                    : S_HDMV/PGS
Codec ID/Info               : Picture based subtitle format used on BDs/HD-DVDs
Duration                    : 1 h 23 min
Bit rate                    : 67.9 kb/s
Count of elements           : 3324
Stream size                 : 40.5 MiB (0%)
Title                       : Turkish
Language                    : Turkish
Default                     : Yes
Forced                      : No

[Image: 33958052318_a80dd924c1_b.jpg]

[Image: 47783307562_95bce42228_b.jpg]

[Image: tdown.png]

For Only Vip Members

Love Wedding Marriage (2011) Bluray Remux 1080p TR-EN AVC DTS-HD MA 5.1 VIP
Reply


Possibly Related Threads…
Thread Author Replies Views Last Post
  Love After Love 2020 1080p Blu-ray Remux AVC TrueHD 5 1-HDT KAiJu 0 29 05-05-2022, 10:09 AM
Last Post: KAiJu
  Love Affair 1939 1080p Blu-ray Remux AVC LPCM 1 0-HDT KAiJu 0 34 04-23-2022, 02:25 PM
Last Post: KAiJu
  The Wedding Day 2021 1080p Blu-ray Remux AVC DTS-HD MA 5.1-HDT KAiJu 0 47 03-15-2022, 07:21 AM
Last Post: KAiJu
  Count Draculas Great Love 1973 1080p Blu-ray Remux AVC DD 2 0-HDT KAiJu 0 69 03-08-2022, 02:51 PM
Last Post: KAiJu
  Redeeming Love 2022 1080p Blu-ray Remux AVC DTS-HD MA 5.1-HDT KAiJu 0 51 03-07-2022, 11:06 AM
Last Post: KAiJu

Forum Jump:


Users browsing this thread: 1 Guest(s)

Powered By MyBB
RSS RSS Syndication
Updated By iAndrew | 2022