Thread Rating:
  • 0 Vote(s) - 0 Average
  • 1
  • 2
  • 3
  • 4
  • 5

[-]
Tags
1937 lost bluray horizon avc 1080p hd ma 2 remux dts

  Lost Horizon (1937) Bluray Remux 1080p AVC DTS-HD MA 2.0
#1
Lost Horizon (1937) Bluray Remux 1080p AVC DTS-HD MA 2.0

[Image: tt0029162.jpg]

[Image: imdb.png]
https://www.imdb.com/title/tt0029162/

[Image: info.png]
Lost Horizon 1937 EN.mkv
Format                      : Matroska
Format version              : Version 4 / Version 2
File size                   : 24.8 GiB
Duration                    : 2 h 13 min
Overall bit rate mode       : Variable
Overall bit rate            : 26.7 Mb/s
Movie name                  : Lost Horizon
Encoded date                : UTC 2017-10-13 13:12:07
Writing application         : mkvmerge v16.0.0 ('Protest') 64-bit
Writing library             : libebml v1.3.5 + libmatroska v1.4.8

Video
ID                          : 1
Format                      : AVC
Format/Info                 : Advanced Video Codec
Format profile              : [email protected]
Format settings, CABAC      : Yes
Format settings, RefFrames  : 2 frames
Format settings, GOP        : M=1, N=10
Codec ID                    : V_MPEG4/ISO/AVC
Duration                    : 2 h 13 min
Bit rate mode               : Variable
Bit rate                    : 24.9 Mb/s
Width                       : 1 920 pixels
Height                      : 1 080 pixels
Display aspect ratio        : 16:9
Frame rate mode             : Constant
Frame rate                  : 23.976 (24000/1001) FPS
Color space                 : YUV
Chroma subsampling          : 4:2:0
Bit depth                   : 8 bits
Scan type                   : Progressive
Bits/(Pixel*Frame)          : 0.501
Stream size                 : 23.2 GiB (93%)
Title                       : Lost Horizon
Language                    : English
Default                     : Yes
Forced                      : No

Audio
ID                          : 2
Format                      : DTS
Format/Info                 : Digital Theater Systems
Format profile              : MA / Core
Mode                        : 16
Format settings, Endianness : Big
Codec ID                    : A_DTS
Duration                    : 2 h 13 min
Bit rate mode               : Variable / Constant
Bit rate                    : 1 712 kb/s / 1 509 kb/s
Channel(s)                  : 2 channels
Channel positions           : Front: L R
Sampling rate               : 48.0 kHz
Frame rate                  : 93.750 FPS (512 SPF)
Bit depth                   : 16 bits
Compression mode            : Lossless / Lossy
Stream size                 : 1.59 GiB (6%)
Title                       : English
Language                    : English
Default                     : Yes
Forced                      : No

Text #1
ID                          : 3
Format                      : PGS
Muxing mode                 : zlib
Codec ID                    : S_HDMV/PGS
Codec ID/Info               : Picture based subtitle format used on BDs/HD-DVDs
Duration                    : 2 h 8 min
Bit rate                    : 45.5 kb/s
Count of elements           : 3224
Stream size                 : 41.8 MiB (0%)
Title                       : English
Language                    : English
Default                     : No
Forced                      : No

Text #2
ID                          : 4
Format                      : PGS
Muxing mode                 : zlib
Codec ID                    : S_HDMV/PGS
Codec ID/Info               : Picture based subtitle format used on BDs/HD-DVDs
Duration                    : 2 h 12 min
Bit rate                    : 39.9 kb/s
Count of elements           : 3044
Stream size                 : 37.8 MiB (0%)
Title                       : Turkish
Language                    : Turkish
Default                     : Yes
Forced                      : No

[Image: vlcsnap-error705-jpg-e0a6978eac17c36cc66...e05263.jpg]

[Image: vlcsnap-error847-jpg-c048fd8902acdfd80be...3b8108.jpg]

[Image: tdown.png]

For Only Vip Members

Lost Horizon (1937) Bluray Remux 1080p AVC DTS-HD MA 2.0 VIP
Reply


Possibly Related Threads…
Thread Author Replies Views Last Post
  Lost Highway (1997) Bluray Remux 1080p AVC DTS-HD MA 5.1 admin 0 739 08-23-2019, 01:46 PM
Last Post: admin
  The Keeper of Lost Causes (2013) Bluray Remux 1080p AVC DTS-HD MA 5.1 admin 0 844 07-20-2019, 11:46 AM
Last Post: admin
  Tinker Bell and the Lost Treasure (2009) Bluray Remux 1080p TR EN AVC DTS-HD MA 5.1 admin 0 1,081 06-18-2019, 01:26 PM
Last Post: admin
  Tad the Lost Explorer (2012) Bluray Remux 1080p EN-ES AVC DTS-HD MA 5.1 admin 0 916 06-02-2019, 05:41 PM
Last Post: admin
  Lost Boys The Thirst (2010) Bluray Remux 1080p VC-1 DTS-HD MA 5.1 admin 0 983 05-25-2019, 08:00 PM
Last Post: admin

Forum Jump:


Users browsing this thread: 1 Guest(s)

Powered By MyBB
Theme By Audentio Design
Updated By iAndrew | 2018