Thread Rating:
  • 0 Vote(s) - 0 Average
  • 1
  • 2
  • 3
  • 4
  • 5

[-]
Tags
bluray lion avc 1080p 2016 hd ma 1 remux dts 5

  Lion (2016) Bluray Remux 1080p AVC DTS-HD MA 5.1
#1
Lion (2016) Bluray Remux 1080p AVC DTS-HD MA 5.1

[Image: tt3741834.jpg]

[Image: imdb.png]
https://www.imdb.com/title/tt3741834/

[Image: info.png]
Lion 2016 EN.mkv
Format                      : Matroska
Format version              : Version 4 / Version 2
File size                   : 16.5 GiB
Duration                    : 1 h 58 min
Overall bit rate mode       : Variable
Overall bit rate            : 20.0 Mb/s
Movie name                  : Lion
Encoded date                : UTC 2017-09-06 14:49:13
Writing application         : mkvmerge v15.0.0 ('Duel with the Devil') 64-bit
Writing library             : libebml v1.3.5 + libmatroska v1.4.5

Video
ID                          : 1
Format                      : AVC
Format/Info                 : Advanced Video Codec
Format profile              : [email protected]
Format settings             : CABAC / 4 Ref Frames
Format settings, CABAC      : Yes
Format settings, ReFrames   : 4 frames
Codec ID                    : V_MPEG4/ISO/AVC
Duration                    : 1 h 58 min
Bit rate mode               : Variable
Bit rate                    : 16.4 Mb/s
Maximum bit rate            : 35.0 Mb/s
Width                       : 1 920 pixels
Height                      : 1 080 pixels
Display aspect ratio        : 16:9
Frame rate mode             : Constant
Frame rate                  : 23.976 (24000/1001) FPS
Color space                 : YUV
Chroma subsampling          : 4:2:0
Bit depth                   : 8 bits
Scan type                   : Progressive
Bits/(Pixel*Frame)          : 0.329
Stream size                 : 13.5 GiB (82%)
Title                       : Lion
Language                    : English
Default                     : Yes
Forced                      : No

Audio
ID                          : 2
Format                      : DTS
Format/Info                 : Digital Theater Systems
Format profile              : MA / Core
Codec ID                    : A_DTS
Duration                    : 1 h 58 min
Bit rate mode               : Variable / Constant
Bit rate                    : 3 601 kb/s / 1 509 kb/s
Channel(s)                  : 6 channels
Channel positions           : Front: L C R, Side: L R, LFE
Sampling rate               : 48.0 kHz
Frame rate                  : 93.750 FPS (512 SPF)
Bit depth                   : 24 bits
Compression mode            : Lossless / Lossy
Stream size                 : 2.98 GiB (18%)
Title                       : English
Language                    : English
Default                     : Yes
Forced                      : No

Text #1
ID                          : 3
Format                      : PGS
Muxing mode                 : zlib
Codec ID                    : S_HDMV/PGS
Codec ID/Info               : Picture based subtitle format used on BDs/HD-DVDs
Duration                    : 1 h 57 min
Bit rate                    : 21.0 kb/s
Count of elements           : 2422
Stream size                 : 17.7 MiB (0%)
Title                       : English
Language                    : English
Default                     : No
Forced                      : No

Text #2
ID                          : 4
Format                      : PGS
Muxing mode                 : zlib
Codec ID                    : S_HDMV/PGS
Codec ID/Info               : Picture based subtitle format used on BDs/HD-DVDs
Duration                    : 1 h 51 min
Bit rate                    : 25.6 kb/s
Count of elements           : 1704
Stream size                 : 20.4 MiB (0%)
Title                       : Turkish
Language                    : Turkish
Default                     : Yes
Forced                      : No

[Image: 47848159341_cf733c6e3e_b.jpg]

[Image: 46931829735_eba8bdc3b9_b.jpg]

[Image: tdown.png]

For Only Vip Members

Lion (2016) Bluray Remux 1080p AVC DTS-HD MA 5.1 VIP
Reply


Possibly Related Threads…
Thread Author Replies Views Last Post
  The Lion King 1-2-3 (1994-2004) Bluray Remux 1080p AVC DTS 5.1 admin 0 1,000 05-27-2019, 10:58 AM
Last Post: admin

Forum Jump:


Users browsing this thread: 1 Guest(s)

Powered By MyBB
Theme By Audentio Design
Updated By iAndrew | 2018