Thread Rating:
  • 0 Vote(s) - 0 Average
  • 1
  • 2
  • 3
  • 4
  • 5

[-]
Tags
in bluray avc right 1080p the hd ma 1 remux dts let 5 2008 one

  Let the Right One In (2008) Bluray Remux 1080p AVC DTS-HD MA 5.1
#1
Let the Right One In (2008) Bluray Remux 1080p AVC DTS-HD MA 5.1

[Image: tt1139797.jpg]

[Image: imdb.png]
https://www.imdb.com/title/tt1139797/

[Image: info.png]
Let the Right One In 2008 SE.mkv
Format                      : Matroska
Format version              : Version 4 / Version 2
File size                   : 17.2 GiB
Duration                    : 1 h 54 min
Overall bit rate mode       : Variable
Overall bit rate            : 21.5 Mb/s
Movie name                  : Let the Right One In aka Låt Den Rätte Komma In
Encoded date                : UTC 2017-04-19 20:49:45
Writing application         : mkvmerge v10.0.0 ('To Drown In You') 64bit
Writing library             : libebml v1.3.4 + libmatroska v1.4.5

Video
ID                          : 1
Format                      : AVC
Format/Info                 : Advanced Video Codec
Format profile              : [email protected]
Format settings, CABAC      : Yes
Format settings, ReFrames   : 4 frames
Format settings, GOP        : M=3, N=18
Codec ID                    : V_MPEG4/ISO/AVC
Duration                    : 1 h 54 min
Bit rate mode               : Variable
Bit rate                    : 19.3 Mb/s
Maximum bit rate            : 35.0 Mb/s
Width                       : 1 920 pixels
Height                      : 1 080 pixels
Display aspect ratio        : 16:9
Frame rate mode             : Constant
Frame rate                  : 23.976 (24000/1001) FPS
Standard                    : NTSC
Color space                 : YUV
Chroma subsampling          : 4:2:0
Bit depth                   : 8 bits
Scan type                   : Progressive
Bits/(Pixel*Frame)          : 0.388
Stream size                 : 15.5 GiB (90%)
Title                       : Let the Right One In aka Låt Den Rätte Komma In
Language                    : Swedish
Default                     : Yes
Forced                      : No
Color range                 : Limited
Color primaries             : BT.709
Transfer characteristics    : BT.709
Matrix coefficients         : BT.709

Audio
ID                          : 2
Format                      : DTS
Format/Info                 : Digital Theater Systems
Format profile              : MA / Core
Mode                        : 16
Format settings, Endianness : Big
Codec ID                    : A_DTS
Duration                    : 1 h 54 min
Bit rate mode               : Variable / Constant
Bit rate                    : 2 157 kb/s / 1 509 kb/s
Channel(s)                  : 6 channels
Channel positions           : Front: L C R, Side: L R, LFE
Sampling rate               : 48.0 kHz
Frame rate                  : 93.750 FPS (512 spf)
Bit depth                   : 16 bits
Compression mode            : Lossless / Lossy
Stream size                 : 1.73 GiB (10%)
Title                       : Swedisf
Language                    : Swedish
Default                     : Yes
Forced                      : No

Text #1
ID                          : 3
Format                      : PGS
Muxing mode                 : zlib
Codec ID                    : S_HDMV/PGS
Codec ID/Info               : Picture based subtitle format used on BDs/HD-DVDs
Duration                    : 1 h 53 min
Bit rate                    : 2 088 b/s
Count of elements           : 1268
Stream size                 : 1.69 MiB (0%)
Title                       : English
Language                    : English
Default                     : No
Forced                      : No

Text #2
ID                          : 4
Format                      : PGS
Muxing mode                 : zlib
Codec ID                    : S_HDMV/PGS
Codec ID/Info               : Picture based subtitle format used on BDs/HD-DVDs
Duration                    : 1 h 46 min
Bit rate                    : 4 480 b/s
Count of elements           : 1216
Stream size                 : 3.40 MiB (0%)
Title                       : Turkish
Language                    : Turkish
Default                     : Yes
Forced                      : No

[Image: vlcsnap-error283-jpg-013db0bc30d531bf6be...6d8902.jpg]

[Image: vlcsnap-error506-jpg-8d53c349f33004f9910...5a9065.jpg]

[Image: tdown.png]

For Only Vip Members

Let the Right One In (2008) Bluray Remux 1080p AVC DTS-HD MA 5.1 VIP
Reply


Possibly Related Threads…
Thread Author Replies Views Last Post
  Stiletto (2008) Bluray REMUX 1080p AVC DTS-HD MA 5.1 AbrA 0 426 07-03-2020, 11:50 AM
Last Post: AbrA
  Semi-Pro (2008) Bluray Remux 1080p VC-1 DTS-HD MA 7.1 admin 0 701 08-23-2019, 01:04 PM
Last Post: admin
  Ich Will (2008) Bluray Remux 1080p AVC DTS-HD MA 7.1 admin 0 575 08-19-2019, 03:54 PM
Last Post: admin
  RocknRolla (2008) Bluray Remux 1080p TR EN VC-1 DD 5.1 admin 0 563 07-30-2019, 12:31 PM
Last Post: admin
  Bathory (2008) Bluray Remux 1080p AVC DD 5.1 admin 0 628 07-16-2019, 02:01 PM
Last Post: admin

Forum Jump:


Users browsing this thread: 1 Guest(s)

Powered By MyBB
Theme By Audentio Design
Updated By iAndrew | 2018