Thread Rating:
  • 0 Vote(s) - 0 Average
  • 1
  • 2
  • 3
  • 4
  • 5

[-]
Tags
croft cradle bluray raider avc 1080p of the 2003 hd ma tomb 1 remux lara dts life 5

  Lara Croft Tomb Raider The Cradle of Life (2003) Bluray remux 1080p AVC DTS-HD MA 5.1
#1
Lara Croft Tomb Raider The Cradle of Life (2003) Bluray remux 1080p AVC DTS-HD MA 5.1

[Image: tt0325703.jpg]

[Image: imdb.png]
https://www.imdb.com/title/tt0325703/

[Image: info.png]
Lara Croft Tomb Raider The Cradle of Life 2003 EN.mkv
Format                      : Matroska
Format version              : Version 4 / Version 2
File size                   : 30.3 GiB
Duration                    : 1 h 57 min
Overall bit rate mode       : Variable
Overall bit rate            : 37.0 Mb/s
Movie name                  : Lara Croft Tomb Raider: The Cradle of Life
Encoded date                : UTC 2016-10-26 18:59:50
Writing application         : mkvmerge v9.5.0 ('Quiet Fire') 64bit
Writing library             : libebml v1.3.4 + libmatroska v1.4.5

Video
ID                          : 1
Format                      : AVC
Format/Info                 : Advanced Video Codec
Format profile              : [email protected]
Format settings, CABAC      : Yes
Format settings, ReFrames   : 4 frames
Codec ID                    : V_MPEG4/ISO/AVC
Duration                    : 1 h 57 min
Bit rate mode               : Variable
Bit rate                    : 32.6 Mb/s
Maximum bit rate            : 36.0 Mb/s
Width                       : 1 920 pixels
Height                      : 1 080 pixels
Display aspect ratio        : 16:9
Frame rate mode             : Constant
Frame rate                  : 23.976 (24000/1001) FPS
Color space                 : YUV
Chroma subsampling          : 4:2:0
Bit depth                   : 8 bits
Scan type                   : Progressive
Bits/(Pixel*Frame)          : 0.655
Stream size                 : 26.7 GiB (88%)
Title                       : Lara Croft Tomb Raider: The Cradle of Life
Language                    : English
Default                     : Yes
Forced                      : No

Audio
ID                          : 2
Format                      : DTS
Format/Info                 : Digital Theater Systems
Format profile              : MA / Core
Mode                        : 16
Format settings, Endianness : Big
Codec ID                    : A_DTS
Duration                    : 1 h 57 min
Bit rate mode               : Variable / Constant
Bit rate                    : 4 409 kb/s / 1 509 kb/s
Channel(s)                  : 6 channels
Channel positions           : Front: L C R, Side: L R, LFE
Sampling rate               : 48.0 kHz
Frame rate                  : 93.750 FPS (512 spf)
Bit depth                   : 24 bits
Compression mode            : Lossless / Lossy
Stream size                 : 3.62 GiB (12%)
Title                       : English
Language                    : English
Default                     : Yes
Forced                      : No

Text #1
ID                          : 3
Format                      : PGS
Muxing mode                 : zlib
Codec ID                    : S_HDMV/PGS
Codec ID/Info               : Picture based subtitle format used on BDs/HD-DVDs
Duration                    : 1 h 44 min
Bit rate                    : 6 731 b/s
Count of elements           : 1614
Stream size                 : 5.02 MiB (0%)
Title                       : English
Language                    : English
Default                     : No
Forced                      : No

Text #2
ID                          : 4
Format                      : PGS
Muxing mode                 : zlib
Codec ID                    : S_HDMV/PGS
Codec ID/Info               : Picture based subtitle format used on BDs/HD-DVDs
Duration                    : 1 h 46 min
Bit rate                    : 7 782 b/s
Count of elements           : 1378
Stream size                 : 5.93 MiB (0%)
Title                       : Turkish
Language                    : Turkish
Default                     : Yes
Forced                      : No

[Image: vlcsnap-error450-jpg-35d869232e29795612b...f85f6d.jpg]

[Image: vlcsnap-error850-jpg-31dbca63b3fb7d93366...157e93.jpg]

[Image: tdown.png]

For Only Vip Members

Lara Croft Tomb Raider The Cradle of Life (2003) Bluray remux 1080p AVC DTS-HD MA 5.1 VIP
Reply


Possibly Related Threads…
Thread Author Replies Views Last Post
  The League of Extraordinary Gentlemen (2003) Bluray REMUX 1080p AVC DTS-HD MA 5.1-HUS AbrA 0 52 11-17-2020, 04:24 PM
Last Post: AbrA
  The Last Samurai (2003) Bluray REMUX 1080p VC-1 TRUEHD 5.1-HUSe AbrA 0 79 11-05-2020, 12:11 PM
Last Post: AbrA
  Runaway Jury (2003) Bluray REMUX 1080p AVC DTS-HD 5.1-HUSe AbrA 0 417 05-31-2020, 05:26 PM
Last Post: AbrA
  The Book of Life (2014) Bluray Remux 1080p AVC DTS 7.1 admin 2 1,016 05-19-2020, 10:29 PM
Last Post: Xeirourgos
  Love Me If You Dare (2003) Bluray REMUX 1080p FR-TR AVC DD 5.1-HuSe admin 0 686 03-27-2020, 08:51 PM
Last Post: admin

Forum Jump:


Users browsing this thread: 1 Guest(s)

Powered By MyBB
Theme By Audentio Design
Updated By iAndrew | 2018