Thread Rating:
  • 0 Vote(s) - 0 Average
  • 1
  • 2
  • 3
  • 4
  • 5

[-]
Tags
croft bluray raider avc 1080p hd ma tomb 1 remux 2001 lara dts 5

 
  Lara Croft Tomb Raider (2001) Bluray Remux 1080p AVC DTS-HD MA 5.1
#1
Lara Croft Tomb Raider (2001) Bluray Remux 1080p AVC DTS-HD MA 5.1

[Image: tt0146316.jpg]

[Image: imdb.png]
https://www.imdb.com/title/tt0146316/

[Image: info.png]
Lara Croft Tomb Raider 2001 EN.mkv
Format                      : Matroska
Format version              : Version 4 / Version 2
File size                   : 23.9 GiB
Duration                    : 1 h 40 min
Overall bit rate mode       : Variable
Overall bit rate            : 34.0 Mb/s
Encoded date                : UTC 2014-06-16 17:02:54
Writing application         : mkvmerge v7.0.0 ('Where We Going') 64bit built on Jun  9 2014 15:16:27
Writing library             : libebml v1.3.0 + libmatroska v1.4.1

Video
ID                          : 1
Format                      : AVC
Format/Info                 : Advanced Video Codec
Format profile              : [email protected]
Format settings, CABAC      : Yes
Format settings, ReFrames   : 2 frames
Codec ID                    : V_MPEG4/ISO/AVC
Duration                    : 1 h 40 min
Bit rate mode               : Variable
Bit rate                    : 31.9 Mb/s
Width                       : 1 920 pixels
Height                      : 1 080 pixels
Display aspect ratio        : 16:9
Frame rate mode             : Constant
Frame rate                  : 23.976 (24000/1001) FPS
Color space                 : YUV
Chroma subsampling          : 4:2:0
Bit depth                   : 8 bits
Scan type                   : Progressive
Bits/(Pixel*Frame)          : 0.641
Stream size                 : 22.4 GiB (94%)
Title                       : Lara Croft Tomb Raider
Language                    : English
Default                     : Yes
Forced                      : No

Audio #1
ID                          : 2
Format                      : DTS
Format/Info                 : Digital Theater Systems
Mode                        : 16
Format settings, Endianness : Big
Codec ID                    : A_DTS
Duration                    : 1 h 40 min
Bit rate mode               : Constant
Bit rate                    : 1 509 kb/s
Channel(s)                  : 6 channels
Channel positions           : Front: L C R, Side: L R, LFE
Sampling rate               : 48.0 kHz
Frame rate                  : 93.750 FPS (512 spf)
Bit depth                   : 24 bits
Compression mode            : Lossy
Stream size                 : 1.06 GiB (4%)
Title                       : English DTS
Language                    : English
Default                     : Yes
Forced                      : No

Audio #2
ID                          : 3
Format                      : AC-3
Format/Info                 : Audio Coding 3
Format settings, Endianness : Big
Codec ID                    : A_AC3
Duration                    : 1 h 40 min
Bit rate mode               : Constant
Bit rate                    : 640 kb/s
Channel(s)                  : 6 channels
Channel positions           : Front: L C R, Side: L R, LFE
Sampling rate               : 48.0 kHz
Frame rate                  : 31.250 FPS (1536 spf)
Bit depth                   : 16 bits
Compression mode            : Lossy
Stream size                 : 460 MiB (2%)
Title                       : English AC3
Language                    : English
Service kind                : Complete Main
Default                     : No
Forced                      : No

Text #1
ID                          : 4
Format                      : PGS
Muxing mode                 : zlib
Codec ID                    : S_HDMV/PGS
Codec ID/Info               : Picture based subtitle format used on BDs/HD-DVDs
Bit rate                    : 0 b/s
Count of elements           : 0
Stream size                 : 0.00 Byte (0%)
Title                       : English
Language                    : English
Default                     : No
Forced                      : No

Text #2
ID                          : 5
Format                      : UTF-8
Codec ID                    : S_TEXT/UTF8
Codec ID/Info               : UTF-8 Plain Text
Duration                    : 1 h 27 min
Bit rate                    : 31 b/s
Count of elements           : 542
Stream size                 : 20.0 KiB (0%)
Title                       : Turkish
Language                    : Turkish
Default                     : Yes
Forced                      : No

[Image: vlcsnap-error112-jpg-d69309516b29029714c...f0f2e6.jpg]

[Image: vlcsnap-error443-jpg-95c6ba6b6e9ab74e6ad...3e2231.jpg]

[Image: tdown.png]

For Only Vip Members

Lara Croft Tomb Raider (2001) Bluray Remux 1080p AVC DTS-HD MA 5.1 VIP
Reply


Possibly Related Threads…
Thread Author Replies Views Last Post
  Dagon 2001 1080p Blu-ray Remux AVC DTS-HD MA 5.1-HDT KAiJu 0 9 11-17-2021, 02:28 PM
Last Post: KAiJu
  The Glass House 2001 1080p Blu-ray Remux AVC DTS-HD MA 5.1-HDT KAiJu 0 36 10-22-2021, 06:35 AM
Last Post: KAiJu
  Evolution 2001 1080p Blu-ray Remux AVC DTS-HD MA 5.1-HDT KAiJu 0 45 09-13-2021, 06:50 AM
Last Post: KAiJu
  The Order (2001) Bluray Remux 1080p AVC DTS-HD MA 5.1 admin 1 1,102 08-27-2021, 03:08 PM
Last Post: ripperken
  Gosford Park 2001 1080p Remux AVC DTS-HD MA 5.1-playBD KAiJu 0 51 08-19-2021, 06:53 AM
Last Post: KAiJu

Forum Jump:


Users browsing this thread: 1 Guest(s)

Powered By MyBB
RSS RSS Syndication
Updated By iAndrew | 2021